Welcome Guest ( Log In | Register )

> Releases Upload / Добавление релизов

Добавить релиз тут / Click here to add release
Рекомендованные обменники / Recommended file shares

> Nechochwen & Panopticon - Nechochwen/Panopticon [split] (2020), Folk/Black Metal | Atmospheric Black Metal
post Feb 3 2020, 19:52:11
Post #1

Четыре Литра
****
Group: Металариец
Posts: 328
Releases: 187
On Forums: 7 years 6 months
Thanks: 4803 time(s)
Unknown


(IMG:http://metalarea.org/images/audiocovers/2020_Feb/acov_tid333430_thumb.jpg)

*Artist: Nechochwen & Panopticon
*Album: Nechochwen/Panopticon [split]
*Year: 2020
*Genre: Folk/Black Metal | Atmospheric Black Metal
*Country: United States (IMG:http://metalarea.org/forum/style_images/flags/United%20States.png) | United States (IMG:http://metalarea.org/forum/style_images/flags/United%20States.png)
*Format: mp3@CBR320kbps
*Size: 92MB

Tracklist:
Nechochwen:
1. Of Wisdom and Prophecy 02:48
2. The Megalith 07:20
3. The Mingling Waters 05:01
4. The Red Road 04:42
Panopticon:
5. Rune's Heart 19:45
******************************
Total playing time: 39:36



Technical info
(IMG:http://metalarea.org/images/spectrogram/2020_Feb/9f88acec8667df4a63a45debead1cccd.png)
Input File: 1 - Of Wisdom and Prophecy.mp3
Channels : 2
Sample Rate : 44100
Precision : 16-bit
Duration : 00:02:48.71 = 7440023 samples = 12653.1 CDDA sectors
File Size : 6.90M
Bit Rate : 327k
Sample Encoding: MPEG audio (layer I, II or III)
Comments :
Title=Of Wisdom and Prophecy
Artist=Nechochwen
Album=Nechochwen
Tracknumber=1
Year=2020
Genre=Metal
Discnumber=1



Register


This post has been edited by DarkHorde: Feb 5 2020, 00:31:42


Go to the top of the page
  Insert nick Quick quote
+Quote Post
 
Start new topic
Replies (1 - 1)
post Feb 4 2020, 13:17:02
Post #2

Group: Подсевший
Posts: 48
Releases: 0
On Forums: 2 months 2 weeks
Thanks: 13 time(s)
Unknown


Оба проекта представили отличный материал. Но все же трек от Panopticon получился гораздо сильней товарищей по сплиту и не отпускает ни на одну минуту


Thanks:
(1) DarkHorde,
Go to the top of the page
  Insert nick Quick quote
+Quote Post

Reply to this topicStart new topic
2 User(s) are reading this topic (2 Guests and 0 Anonymous Users)
0 Members:

 



- Lo-Fi Version Support form
Copyrights and abuse reports form
Time is now: 1st April 2020 - 19:47:08