Welcome Guest ( Log In | Register )

> Dolores - Solitary (2020), Depressive/Post-Black Metal/Post-Rock
post Feb 5 2020, 12:59:29
Post #1

Мегаманьяк
***********
Group: Металариец
Posts: 1,502
Releases: 253
On Forums: 11 years 11 months
Thanks: 5283 time(s)
Russian Federation


(IMG:http://metalarea.org/images/audiocovers/2020_Feb/acov_tid333488_thumb.jpg)

*Artist: Dolores
*Album: Solitary
*Year: 2020
*Genre: Depressive/Post-Black Metal/Post-Rock
*Country: International (IMG:http://metalarea.org/forum/style_images/flags/International.png)
*Format: mp3@CBR320kbps
*Size: 89MB

Tracklist:
01. Change 09:16
02. Back In the Day 09:07
03. Sleepless 10:01
04. Giant Steps (To Madness) (John Coltrane cover) 05:55
05. Forevermore 04:31
******************************
Total playing time: 38:50

Preview 1



Extended info


Россия/Украина

Alexandra Zagaynova - Vocals
Dmitry Ustimenko - Vocals
Alexey Gubanov - Guitars
Alexander Sinyugin - Saxophones, clarinet
Anton Potopnin - Bass
Andriy Buchynskyi - Drums

Lyrics by Alexandr Aksenov
Music by Dolores

Mixed and Mastered by Anar Gamidov


Technical info
(IMG:http://metalarea.org/images/spectrogram/2020_Feb/84e524ce1430c2557603e3289926572b.png)
Input File: 05-Forevermore.mp3
Channels : 2
Sample Rate : 44100
Precision : 16-bit
Duration : 00:04:31.09 = 11955069 samples = 20331.7 CDDA sectors
File Size : 10.8M
Bit Rate : 320k
Sample Encoding: MPEG audio (layer I, II or III)
Comments :
Title=Forevermore
Artist=Dolores
Album=Solitary
Tracknumber=5
Year=2020
Genre=Depressive Black Metal



Register


Go to the top of the page
  Insert nick Quick quote
+Quote Post
 
Start new topic
Replies (1 - 1)
post Oct 17 2020, 21:57:17
Post #2

FOLK METAL FEVER
**************
Group: Металариец
Posts: 2,121
Releases: 6
From: Kyiv
On Forums: 12 years 11 months
Thanks: 279 time(s)
Ukraine


Епт, где отзывы? Альбум ведь шикарный! Кларнет и сакс решают!
Go to the top of the page
  Insert nick Quick quote
+Quote Post

Reply to this topicStart new topic
2 User(s) are reading this topic (2 Guests and 0 Anonymous Users)
0 Members:

 



- Lo-Fi Version Support form
Copyrights and abuse reports form
Time is now: 27th October 2020 - 01:05:33