Welcome Guest ( Log In | Register )

> Releases Upload / Добавление релизов

Добавить релиз тут / Click here to add release
Рекомендованные обменники / Recommended file shares

> Ergholae Somptator - Eau Ardente (2020), Black Metal
post Feb 5 2020, 17:29:56
Post #1

Каждое ваше "Спасибо" помогает мне понять, что я делаю новости не напрасно.
**************
Group: Металариец
Posts: 2,479
Releases: 2187
From: Одесса
On Forums: 11 years 10 months
Thanks: 20345 time(s)
Ukraine


(IMG:http://metalarea.org/images/audiocovers/2020_Feb/acov_tid333505_thumb.jpg)

*Artist: Ergholae Somptator
*Album: Eau Ardente
*Year: 2020
*Genre: Black Metal
*Country: France (IMG:http://metalarea.org/forum/style_images/flags/France.png)
*Format: mp3@CBR320kbps
*Size: 90MB

Tracklist:
1.L'oubli
2.La raideur
3.L'insolence des naïfs
4.Les gouffres de neptune
5.Avalanche
6.Emporté par la fureur et la fièvre
******************************
Total playing time: 37:38



Extended info
Line - up:

Jérôme Bouquet - Keyboards, Drums, Vocals (ex-Kyzyl Kum)
Léo Louis-Honoré - Guitars, Vocals, Bass


Technical info
(IMG:http://metalarea.org/images/spectrogram/2020_Feb/2312eec14e7610bc51bccefb1ca06ef3.png)
Input File: 05. Avalanche.mp3
Channels : 2
Sample Rate : 44100
Precision : 16-bit
Duration : 00:09:04.27 = 24002219 samples = 40820.1 CDDA sectors
File Size : 21.8M
Bit Rate : 320k
Sample Encoding: MPEG audio (layer I, II or III)
Comments :
Title=Avalanche
Artist=Ergholae Somptator
Album=Eau Ardente
Tracknumber=5
Year=2020
Genre=138



Register


Go to the top of the page
  Insert nick Quick quote
+Quote Post
 
Start new topic
Replies (1 - 2)
post Feb 18 2020, 08:03:47
Post #2

Crush! Kill! Destroy!
**************
Group: Металариец
Posts: 5,308
Releases: 15
From: Kaliningrad
On Forums: 12 years 4 months
Thanks: 4924 time(s)
Russian Federation


Весьма неплохой альбом!
Go to the top of the page
  Insert nick Quick quote
+Quote Post
post Mar 26 2020, 04:19:04
Post #3

кручу наждак
**************
Group: Металариец
Posts: 4,323
Releases: 102
From: Самара
On Forums: 9 years 10 months
Thanks: 3428 time(s)
Russian Federation


Муть какая-то.
Go to the top of the page
  Insert nick Quick quote
+Quote Post

Reply to this topicStart new topic
2 User(s) are reading this topic (2 Guests and 0 Anonymous Users)
0 Members:

 



- Lo-Fi Version Support form
Copyrights and abuse reports form
Time is now: 3rd April 2020 - 19:20:34