Welcome Guest ( Log In | Register )

> Xeno Ooze - Parasligm Shift (2019), Sludge/Grindcore/Death Metal
post Feb 7 2020, 15:40:28
Post #1

Serial Uploader
Group Icon
Group: V.I.P
Posts: 37,124
Releases: 35308
From: Lithuania
On Forums: 11 years 11 months
Thanks: 419439 time(s)
Lithuania


(IMG:https://metalarea.org/images/audiocovers/2020_Feb/acov_tid333574_thumb.jpg)

*Artist: Xeno Ooze
*Album: Parasligm Shift
*Year: 2019
*Genre: Sludge/Grindcore/Death Metal
*Country: United States (IMG:https://metalarea.org/forum/style_images/flags/United%20States.png)
*Format: mp3@CBR320kbps
*Size: 41MB

Tracklist:
01. Xenological Warfare 02:36
02. Slime Against Humanity 02:08
03. Wizard of Oooze 03:37
04. Grind Splatter 00:54
05. Dungeon Blaster 01:48
06. Destroy the Slopposition 01:34
07. The Whole of the Maw 02:05
08. Buried by Slime and Dust 03:00
******************************
Total playing time: 17:42



(IMG:https://metalarea.org/images/youtube.png)

Technical info
(IMG:https://metalarea.org/images/spectrogram/2020_Feb/5b248c872bf5e9436b285e88d31748f0.png)
Input File: 08. Buried by Slime & Dust.mp3
Channels : 2
Sample Rate : 44100
Precision : 16-bit
Duration : 00:02:59.55 = 7918243 samples = 13466.4 CDDA sectors
File Size : 7.31M
Bit Rate : 326k
Sample Encoding: MPEG audio (layer I, II or III)
Comments :
Title=Buried by Slime & Dust
Artist=Xeno Ooze
Album=Parasligm Shift
Tracknumber=8/8
Year=2019
Genre=9



Register


Go to the top of the page
  Insert nick Quick quote
+Quote Post
 
Start new topic
Replies (1 - 1)
post Feb 9 2020, 01:50:23
Post #2

Group: Дух
Posts: 1
Releases: 0
On Forums: 3 months 3 weeks
Thanks: 0 time(s)
United States Minor Outlying Islands


nice! (IMG:style_emoticons/default/pray.gif)
Go to the top of the page
  Insert nick Quick quote
+Quote Post

Reply to this topicStart new topic
1 User(s) are reading this topic (1 Guests and 0 Anonymous Users)
0 Members:

 



- Lo-Fi Version Support form
Copyrights and abuse reports form
Time is now: 3rd June 2020 - 04:34:42