Welcome Guest ( Log In | Register )

> Releases Upload / Добавление релизов

Добавить релиз тут / Click here to add release
Рекомендованные обменники / Recommended file shares

> Faustian Pact - Outojen Tornien Varjoissa (2020), Black Metal
post Feb 12 2020, 17:40:15
Post #1

Мегаманьяк
***********
Group: Металариец
Posts: 1,942
Releases: 1536
From: Praha
On Forums: 5 years 11 months
Thanks: 38670 time(s)
Czech Republic


(IMG:http://metalarea.org/images/audiocovers/2020_Feb/acov_tid333714_thumb.jpg)

*Artist: Faustian Pact
*Album: Outojen Tornien Varjoissa
*Year: 2020
*Genre: Black Metal
*Country: Finland (IMG:http://metalarea.org/forum/style_images/flags/Finland.png)
*Format: mp3@CBR320kbps
*Size: 95MB

Tracklist:
1. Saastainen valo lintutornissa 03:58
2. Myytti Am'Khollenin kuninkaasta 04:08
3. Kuulas musta aika 03:43
4. Loitsupuut 05:05
5. Rauniopuhetta 03:58
6. Keihäsrinta 04:04
7. Valottomien askelten takana 03:56
8. Askeesikuun luolissa 04:21
9. Yön viittojen saleissa 03:23
10. Viimeisen tyrannin silmä 04:22
******************************
Total playing time: 41:02



Extended info
Werewolf Records - EVIL-063


Technical info
(IMG:http://metalarea.org/images/spectrogram/2020_Feb/3f449725a988fee6b5a454682adec92f.png)
Input File: 02. Myytti Am Khollenin Kuninkaasta.mp3
Channels : 2
Sample Rate : 44100
Precision : 16-bit
Duration : 00:04:08.93 = 10977725 samples = 18669.6 CDDA sectors
File Size : 10.0M
Bit Rate : 323k
Sample Encoding: MPEG audio (layer I, II or III)
Comments :
Title=Myytti Am Khollenin Kuninkaasta
Artist=Faustian Pact
Album=Outojen Tornien Varjoissa
Tracknumber=02/10
Year=2020
Genre=Black Metal



Register


Go to the top of the page
  Insert nick Quick quote
+Quote Post
 
Start new topic
Replies (1 - 5)
post Feb 12 2020, 20:41:22
Post #2

I love Sushi
******
Group: Металариец
Posts: 656
Releases: 0
From: Vienna
On Forums: 10 years 8 months
Thanks: 135 time(s)
Austria


If theres one thing Finland is excellent in: Synth layered Black Metal


Thanks:
Go to the top of the page
  Insert nick Quick quote
+Quote Post
post Feb 13 2020, 11:20:10
Post #3

Литр
*
Group: Подсевший
Posts: 52
Releases: 10
From: Якутия
On Forums: 11 years 10 months
Thanks: 146 time(s)
Russian Federation


Перезалейте на другой обменник, пожалуйста (IMG:style_emoticons/default/pray.gif)
Go to the top of the page
  Insert nick Quick quote
+Quote Post
post Feb 13 2020, 12:14:56
Post #4

Восемь Литров
********
Group: Металариец
Posts: 810
Releases: 117
On Forums: 5 years 8 months
Thanks: 3920 time(s)
Unknown


Register


Go to the top of the page
  Insert nick Quick quote
+Quote Post
post Mar 25 2020, 23:30:22
Post #5

<<<<<<<========>>>>>>> <= I Am a Cat => <<<<<<<========>>>>>>>
***
Group: Завсегдатай
Posts: 292
Releases: 19
From: *** Ragnarök ***
On Forums: 9 years 10 months
Thanks: 477 time(s)
Norfolk Island


FLAC? (IMG:style_emoticons/default/true_black.gif)
Go to the top of the page
  Insert nick Quick quote
+Quote Post
post Mar 26 2020, 12:48:05
Post #6

Два Литра
**
Group: Завсегдатай
Posts: 140
Releases: 1
On Forums: 12 years 6 months
Thanks: 148 time(s)
Ukraine


Однозначно один из лучших в этом году.
Go to the top of the page
  Insert nick Quick quote
+Quote Post

Reply to this topicStart new topic
2 User(s) are reading this topic (2 Guests and 0 Anonymous Users)
0 Members:

 



- Lo-Fi Version Support form
Copyrights and abuse reports form
Time is now: 3rd April 2020 - 17:08:43