Welcome Guest ( Log In | Register )

> Releases Upload / Добавление релизов

Добавить релиз тут / Click here to add release
Рекомендованные обменники / Recommended file shares

 
Reply to this topicStart new topic
> Оцепеневшие - Разрыв Связи [compilation] (2017), Doom Metal/Doomgaze/Drone/Industrial (D7)
post Feb 12 2020, 20:18:07
Post #1

Три Литра
***
Group: Завсегдатай
Posts: 202
Releases: 8
From: Санкт-Петербург
On Forums: 13 years 10 months
Thanks: 647 time(s)
Russian Federation


(IMG:http://metalarea.org/images/audiocovers/2020_Feb/acov_tid333720_thumb.jpg)

*Artist: Оцепеневшие
*Album: Разрыв Связи [compilation]
*Year: 2017
*Genre: Doom Metal/Doomgaze/Drone/Industrial
*Country: Russian Federation (IMG:http://metalarea.org/forum/style_images/flags/Russian%20Federation.png)
*Format: mp3@CBR320kbps
*Size: 340MB

Tracklist:
01. 24 212 дней 09:19
02. 23 000 23:14
03. L.B.C.E.S.B. 15:15
04. Противление 09:44
05. Enter The Void 13:52
06. ДАЕРММУАЗУАЯ 13:47
07. Sonne Der Toten 08:46
08. Zun 08:13
09. Scotobasis (feat. Circle Of Unexisted) 09:51
10. На Западном фронте (Nichts Neues Rework of Банда Четырёх) 07:55
11. The Unknown Kadath In The Cold Waste (Nightmare Edit of Thergothon) 07:59
12. The Black (Septic Version of ВИРЬ) 07:41
13. Ce Qui Ne Trompe Pas (feat. Вирь, live @ Шоколадная Фабрика, 18.10.2014) 09:32
******************************
Total playing time: 2:25:09



Extended info
Personal purchaise


Technical info
(IMG:http://metalarea.org/images/spectrogram/2020_Feb/26507b2d894da7a98c0a80df9c45af62.png)
Input File: 01 - 24 212 дней.mp3
Channels : 2
Sample Rate : 44100
Precision : 16-bit
Duration : 00:09:19.19 = 24660059 samples = 41938.9 CDDA sectors
File Size : 22.4M
Bit Rate : 320k
Sample Encoding: MPEG audio (layer I, II or III)
Comments :
Title=24 212 дней
Artist=Оцепеневшие
Album=Разрыв связи (compilation)
Tracknumber=01
Year=2017
Genre=Doom Metal/Doomgaze/Drone/Industrial



Register


Go to the top of the page
  Insert nick Quick quote
+Quote Post

Reply to this topicStart new topic
2 User(s) are reading this topic (2 Guests and 0 Anonymous Users)
0 Members:

 



- Lo-Fi Version Support form
Copyrights and abuse reports form
Time is now: 31st March 2020 - 02:46:56