Welcome Guest ( Log In | Register )

> Releases Upload / Добавление релизов

Добавить релиз тут / Click here to add release
Рекомендованные обменники / Recommended file shares

> Diabulus In Musica - Euphonic Entropy (2020), Symphonic/Power Metal (D5)
post Feb 13 2020, 11:39:44
Post #1

Serial Uploader
Group Icon
Group: V.I.P
Posts: 36,984
Releases: 35167
From: Lithuania
On Forums: 11 years 8 months
Thanks: 414301 time(s)
Lithuania


(IMG:http://metalarea.org/images/audiocovers/2020_Feb/acov_tid333739_thumb.jpg)

*Artist: Diabulus In Musica
*Album: Euphonic Entropy
*Year: 2020
*Genre: Symphonic/Power Metal
*Country: Spain (IMG:http://metalarea.org/forum/style_images/flags/Spain.png)
*Format: mp3@CBR320kbps
*Size: 130MB

Tracklist:
01. A Lucid Chaos 01:39
02. Race to Equilibrium 05:03
03. Nuevo Rumbo 04:45
04. The Misfit's Swing 03:44
05. In Quest of Sense 04:31
06. Otoi 05:43
07. Blurred Dreams 05:01
08. On the Edge 04:10
09. Our Last Gloomy Dance 07:27
10. One Step Higher 04:49
11. Blind Muse 05:18
12. In the Vortex 04:16
******************************
Total playing time: 56:26

(IMG:http://metalarea.org/images/myspace.png)


(IMG:http://metalarea.org/images/youtube.png)

Technical info
(IMG:http://metalarea.org/images/spectrogram/2020_Feb/b87d94c5f82cfc74cbd44175d7719014.png)
Input File: 02 Race to Equilibrium.mp3
Channels : 2
Sample Rate : 44100
Precision : 16-bit
Duration : 00:05:03.25 = 13373149 samples = 22743.5 CDDA sectors
File Size : 12.1M
Bit Rate : 320k
Sample Encoding: MPEG audio (layer I, II or III)
Comments :
Title=Race to Equilibrium
Artist=Diabulus In Musica
Album=Euphonic Entropy
Tracknumber=02/12
Year=2020-20-20
Discnumber=1/1



Register


Go to the top of the page
  Insert nick Quick quote
+Quote Post
 
Start new topic
Replies (1 - 3)
post Feb 14 2020, 09:06:06
Post #2

Тридцать лет на борту "Тяжёлого" крейсера
**************
Group: Металариец
Posts: 2,167
Releases: 0
From: Питер
On Forums: 12 years 8 months
Thanks: 573 time(s)
Russian Federation


Отличная работа! В отличии от Epica, к примеру, нет лишнего киселя, всё по делу. Не шедевр, но очень приятная пластинка
Go to the top of the page
  Insert nick Quick quote
+Quote Post
post Feb 14 2020, 14:51:07
Post #3

Три Литра
***
Group: Завсегдатай
Posts: 226
Releases: 0
From: Лыткарино
On Forums: 9 months 1 week
Thanks: 52 time(s)
Russian Federation


Как ни странно для симфометала с женским вокалом тут плеваться не получается, всё хорошо, есть интересные мелодия, есть нехарактерные утяжеления)
Go to the top of the page
  Insert nick Quick quote
+Quote Post
post Feb 15 2020, 10:15:19
Post #4

Group: Дух
Posts: 6
Releases: 0
On Forums: 4 days 13 hours
Thanks: 0 time(s)
Guatemala


Epica Worship band.
Go to the top of the page
  Insert nick Quick quote
+Quote Post

Reply to this topicStart new topic
2 User(s) are reading this topic (2 Guests and 0 Anonymous Users)
0 Members:

 



- Lo-Fi Version Support form
Copyrights and abuse reports form
Time is now: 19th February 2020 - 23:08:45