Welcome Guest ( Log In | Register )

> Releases Upload / Добавление релизов

Добавить релиз тут / Click here to add release
Рекомендованные обменники / Recommended file shares

> Archon Angel - Fallen (2020), Melodic Heavy Metal
post Feb 13 2020, 12:09:12
Post #1

Serial Uploader
Group Icon
Group: V.I.P
Posts: 36,984
Releases: 35167
From: Lithuania
On Forums: 11 years 8 months
Thanks: 414301 time(s)
Lithuania


(IMG:http://metalarea.org/images/audiocovers/2020_Feb/acov_tid333742_thumb.jpg)

*Artist: Archon Angel
*Album: Fallen
*Year: 2020
*Genre: Melodic Heavy Metal
*Country: United States (IMG:http://metalarea.org/forum/style_images/flags/United%20States.png)
*Format: mp3@CBR320kbps
*Size: 115MB

Tracklist:
01. Fallen
02. The Serpent
03. Rise
04. Under The Spell
05. Twilight
06. Faces Of Innocence
07. Hit The Wall
08. Who's In The Mirror
09. Brought To The Edge
10. Return Of The Storm
******************************
Total playing time: 49:57


(IMG:http://metalarea.org/images/youtube.png)

Technical info
(IMG:http://metalarea.org/images/spectrogram/2020_Feb/fd5bf094dfe6cd843bc002d55430fbf1.png)
Input File: 2 - The Serpent.mp3
Channels : 2
Sample Rate : 44100
Precision : 16-bit
Duration : 00:04:47.08 = 12660140 samples = 21530.9 CDDA sectors
File Size : 11.6M
Bit Rate : 322k
Sample Encoding: MPEG audio (layer I, II or III)
Comments :
Title=The Serpent
Artist=Archon Angel/Zak Stevens
Album=Fallen
Tracknumber=2
Year=2020
Genre=Rock/Hard Rock/Metal
Discnumber=1



Register


Go to the top of the page
  Insert nick Quick quote
+Quote Post
 
Start new topic
Replies (1 - 3)
post Feb 14 2020, 08:38:56
Post #2

hearer & reader
**************
Group: Металариец
Posts: 8,366
Releases: 116
From: Moscow
On Forums: 12 years 5 months
Thanks: 7997 time(s)
Russian Federation


Vocals : Zak Stevens (Circle II Circle, Wicked Witch of Boston, ex-Savatage, ex-Trans-Siberian Orchestra, ex-Machines of Grace)
Guitars : Aldo Lonobile (Death SS, Edge of Forever, Secret Sphere, ex-Elvenking (live), ex-Civilization One, ex-Dead Leaves)
Bass: Yves Campion (Nightmare, ex-Urgent)
Drums: Marco Lazzarini (Secret Sphere, Overtures)
Keyboards & Piano (Studio): Antonio Agate (ex-Secret Sphere, ex-Odd Dimension)
Итальянская банда с американским вокалистом (и французским басистом)

https://music.yandex.ru/album/9114249
Go to the top of the page
  Insert nick Quick quote
+Quote Post
post Feb 14 2020, 10:02:03
Post #3

Тридцать лет на борту "Тяжёлого" крейсера
**************
Group: Металариец
Posts: 2,167
Releases: 0
From: Питер
On Forums: 12 years 8 months
Thanks: 573 time(s)
Russian Federation


Что вокал (не люблю такой тембр), что музыка ничего из себя не представляют, чтобы оставить в коллекцию
Go to the top of the page
  Insert nick Quick quote
+Quote Post
post Feb 14 2020, 15:26:07
Post #4

Правь статус, ####!111
**************
Group: Металариец
Posts: 2,250
Releases: 0
From: MoscoW
On Forums: 13 years 2 months
Thanks: 1983 time(s)
Russian Federation


SAVATAGE
(IMG:style_emoticons/default/metaler.gif)
Go to the top of the page
  Insert nick Quick quote
+Quote Post

Reply to this topicStart new topic
2 User(s) are reading this topic (2 Guests and 0 Anonymous Users)
0 Members:

 



- Lo-Fi Version Support form
Copyrights and abuse reports form
Time is now: 19th February 2020 - 23:35:23