Welcome Guest ( Log In | Register )

> Releases Upload / Добавление релизов

Добавить релиз тут / Click here to add release
Рекомендованные обменники / Recommended file shares

> Black Royal - Firebride (2020), Heavy/Stoner/Death Metal
post Feb 13 2020, 12:48:49
Post #1

Serial Uploader
Group Icon
Group: V.I.P
Posts: 36,984
Releases: 35167
From: Lithuania
On Forums: 11 years 8 months
Thanks: 414301 time(s)
Lithuania


(IMG:http://metalarea.org/images/audiocovers/2020_Feb/acov_tid333746_thumb.jpg)

*Artist: Black Royal
*Album: Firebride
*Year: 2020
*Genre: Heavy/Stoner/Death Metal
*Country: United States (IMG:http://metalarea.org/forum/style_images/flags/United%20States.png)
*Format: mp3@CBR320kbps
*Size: 88MB

Tracklist:
01. Coven 05:30
02. Hail Yourself 03:28
03. Pagan Saviour 04:33
04. All Them Witches 04:41
05. 313 01:26
06. Gods of War 04:50
07. The Reverend 03:40
08. Firebride 04:44
09. For the Dead Travel Fast 05:25
******************************
Total playing time: 38:17




(IMG:http://metalarea.org/images/youtube.png)

Technical info
(IMG:http://metalarea.org/images/spectrogram/2020_Feb/886888f932ce267593666eb243e3a04e.png)
Input File: 02 Hail Yourself.mp3
Channels : 2
Sample Rate : 44100
Precision : 16-bit
Duration : 00:03:28.34 = 9187706 samples = 15625.4 CDDA sectors
File Size : 8.33M
Bit Rate : 320k
Sample Encoding: MPEG audio (layer I, II or III)
Comments :
Title=Hail Yourself
Artist=Black Royal
Album=Firebride
Tracknumber=02/09
Year=2020-20-20
Discnumber=1/1



Register


Go to the top of the page
  Insert nick Quick quote
+Quote Post
 
Start new topic
Replies (1 - 2)
post Feb 13 2020, 22:27:06
Post #2

Три Литра
***
Group: Завсегдатай
Posts: 270
Releases: 0
From: Россия
On Forums: 8 years 1 week
Thanks: 89 time(s)
Russian Federation


Все теги файлов исписаны посторонним сайтом.Видать в целях рекламы
Go to the top of the page
  Insert nick Quick quote
+Quote Post
post Feb 14 2020, 08:50:49
Post #3

hearer & reader
**************
Group: Металариец
Posts: 8,366
Releases: 116
From: Moscow
On Forums: 12 years 5 months
Thanks: 7997 time(s)
Russian Federation


ЦИТАТА(Kehl05 @ Feb 14 2020, 00:27:06) *
Все теги файлов исписаны посторонним сайтом.Видать в целях рекламы

Да плевать, что в теге comment стоит "by st.liar", а в www ссылка на гет-албумс.
Хуже, что автор этих фиников в Америку зарядил.
Go to the top of the page
  Insert nick Quick quote
+Quote Post

Reply to this topicStart new topic
2 User(s) are reading this topic (2 Guests and 0 Anonymous Users)
0 Members:

 



- Lo-Fi Version Support form
Copyrights and abuse reports form
Time is now: 20th February 2020 - 00:01:00