Welcome Guest ( Log In | Register )

> Releases Upload / Добавление релизов

Добавить релиз тут / Click here to add release
Рекомендованные обменники / Recommended file shares

> Ensnared - Inimicus Generis Humani (2020), Blackened Death Metal
post Feb 13 2020, 13:16:47
Post #1

Правь статус, ####!111
**************
Group: Металариец
Posts: 20,619
Releases: 14070
From: Г.Харьков
On Forums: 7 years 9 months
Thanks: 248223 time(s)
Unknown


(IMG:http://metalarea.org/images/audiocovers/2020_Feb/acov_tid333750_thumb.jpg)

*Artist: Ensnared
*Album: Inimicus Generis Humani
*Year: 2020
*Genre: Blackened Death Metal
*Country: Sweden (IMG:http://metalarea.org/forum/style_images/flags/Sweden.png)
*Format: mp3@CBR320kbps
*Size: 94MB

Tracklist:
1. Interlude I 04:08
2. Spiritual Necrosis 06:29
3. The Throne of Transformation 06:17
4. Interlude II 02:40
5. Disciples of the Whip 02:56
6. Interlude III 02:52
7. Katharsis Through Terror 05:51
8. Black Hole Acolytes 09:35
******************************
Total playing time: 40:48




Extended info
J.K Drums (2010-present)
See also: ex-Invidious, ex-Gravehammer
H.K Guitars, Vocals (2010-present)
See also: ex-Chernobyl, ex-Gravehammer, ex-Church Bizarre (live)


Technical info
(IMG:http://metalarea.org/images/spectrogram/2020_Feb/e6d18ef36395499e77baff345d78eadd.png)
Input File: 03. The Throne of Transformation.mp3
Channels : 2
Sample Rate : 44100
Precision : 16-bit
Duration : 00:06:17.08 = 16629008 samples = 28280.6 CDDA sectors
File Size : 15.2M
Bit Rate : 322k
Sample Encoding: MPEG audio (layer I, II or III)
Comments :
Title=The Throne of Transformation
Artist=Ensnared
Album=Inimicus Generis Humani
Tracknumber=3
Year=2020
Genre=Avant-Garde Death/Black
Discnumber=1



Register


Go to the top of the page
  Insert nick Quick quote
+Quote Post
 
Start new topic
Replies (1 - 2)
post Feb 15 2020, 10:27:48
Post #2

Group: Дух
Posts: 8
Releases: 1
On Forums: 10 years 5 months
Thanks: 10 time(s)
Ukraine


broken file :(
Go to the top of the page
  Insert nick Quick quote
+Quote Post
post Feb 15 2020, 19:56:48
Post #3

Crush! Kill! Destroy!
**************
Group: Металариец
Posts: 5,268
Releases: 15
From: Kaliningrad
On Forums: 12 years 3 months
Thanks: 4853 time(s)
Russian Federation


Прекрасно! Еще чуть-чуть, и в short list альбомов года!


Thanks:
(1) DarkHorde,
Go to the top of the page
  Insert nick Quick quote
+Quote Post

Reply to this topicStart new topic
1 User(s) are reading this topic (1 Guests and 0 Anonymous Users)
0 Members:

 



- Lo-Fi Version Support form
Copyrights and abuse reports form
Time is now: 19th February 2020 - 23:40:40