Welcome Guest ( Log In | Register )

> Releases Upload / Добавление релизов

Добавить релиз тут / Click here to add release
Рекомендованные обменники / Recommended file shares

 
Reply to this topicStart new topic
> Big Boss - Sbírka Černých Růží/Collection Of Black Roses (2017), Doom Metal/Rock (D)
post Feb 13 2020, 13:24:31
Post #1

Правь статус, ####!111
**************
Group: Металариец
Posts: 6,239
Releases: 5752
From: Lithuania
On Forums: 13 years 4 months
Thanks: 42484 time(s)
Lithuania


(IMG:https://metalarea.org/images/audiocovers/2020_Feb/acov_tid333752_thumb.jpg)

*Artist: Big Boss
*Album: Sbírka Černých Růží/Collection Of Black Roses
*Year: 2017
*Genre: Doom Metal/Rock
*Country: Czech Republic (IMG:https://metalarea.org/forum/style_images/flags/Czech%20Republic.png)
*Format: mp3@CBR320kbps
*Size: 190MB

Tracklist:
Disc 1:
1. Černá růže 03:36
2. Řekni mi proč 04:14
3. Nech mě samotného 03:08
4. Když pláčeš 01:12
5. Strom smutku 02:23
6. Vzpomínka 04:08
7. Znovuzrození 03:50
8. Hostina smrti 09:10
9. Můj temný anděl 04:20
10. Samota (část třetí) 03:38
11. Panta Rhei 03:06

Disc 2:
1. Black Rose 05:43
2. Tell Me Why 03:33
3. Leave Me Alone 05:23
4. The Tree of Sorrow 04:38
5. Memory 04:39
6. Rebirth 03:34
7. Dark Angel of Mine 04:20
8. Solitude (Part III) 04:03
9. Panta Rhei 04:26
******************************
Total playing time: 1:23:04

Bandzone


Extended info
CD1 is unplugged, CD2 - Doom Metal/Rock.


Technical info
(IMG:https://metalarea.org/images/spectrogram/2020_Feb/6efa0468227b8d6cccd18c7c39866596.png)
Input File: 03. BigBoss - Leave Me Alone.mp3
Channels : 2
Sample Rate : 44100
Precision : 16-bit
Duration : 00:05:23.25 = 14255193 samples = 24243.5 CDDA sectors
File Size : 12.9M
Bit Rate : 320k
Sample Encoding: MPEG audio (layer I, II or III)
Comments :
Title=Leave Me Alone
Artist=BigBoss
Album=Collection Of Black Roses
Tracknumber=3/9
Year=2017
Genre=9



Register


Go to the top of the page
  Insert nick Quick quote
+Quote Post

Reply to this topicStart new topic
1 User(s) are reading this topic (1 Guests and 0 Anonymous Users)
0 Members:

 



- Lo-Fi Version Support form
Copyrights and abuse reports form
Time is now: 19th February 2020 - 23:53:37