Welcome Guest ( Log In | Register )

> Arcaine - As Life Decays (2020), Modern Melodic Death Metal
post Feb 13 2020, 14:18:02
Post #1

Serial Uploader
Group Icon
Group: V.I.P
Posts: 37,287
Releases: 35463
From: Lithuania
On Forums: 12 years 1 month
Thanks: 422526 time(s)
Lithuania


(IMG:http://metalarea.org/images/audiocovers/2020_Feb/acov_tid333757_thumb.jpg)

*Artist: Arcaine
*Album: As Life Decays
*Year: 2020
*Genre: Modern Melodic Death Metal
*Country: Switzerland (IMG:http://metalarea.org/forum/style_images/flags/Switzerland.png)
*Format: mp3@CBR320kbps
*Size: 75MB

Tracklist:
01. Intro (Instrumental)
02. As Life Decays
03. Relentless
04. Still Alive
05. Tyrants
06. Toxic Mankind
07. Rebuild
08. Dream
09. Void
******************************
Total playing time: 32:40


(IMG:http://metalarea.org/images/youtube.png)

Technical info
(IMG:http://metalarea.org/images/spectrogram/2020_Feb/46db4373b61e2534e185e94f58ad140b.png)
Input File: 02. As Life Decays.mp3
Channels : 2
Sample Rate : 44100
Precision : 16-bit
Duration : 00:02:55.58 = 7743122 samples = 13168.6 CDDA sectors
File Size : 7.06M
Bit Rate : 322k
Sample Encoding: MPEG audio (layer I, II or III)
Comments :
Title=As Life Decays
Artist=Arcaine
Album=As Life Decays
Tracknumber=2
Year=2020
Discnumber=1



Register


Go to the top of the page
  Insert nick Quick quote
+Quote Post
 
Start new topic
Replies (1 - 4)
post Feb 14 2020, 09:04:44
Post #2

Тридцать лет на борту "Тяжёлого" крейсера
**************
Group: Металариец
Posts: 2,314
Releases: 0
From: Питер
On Forums: 13 years 1 month
Thanks: 662 time(s)
Russian Federation


Нормально швейцарцы рубят!


Thanks:
Go to the top of the page
  Insert nick Quick quote
+Quote Post
post Feb 14 2020, 10:45:18
Post #3

тебе 29, а ты все реверсами балуешься
***********
Group: Металариец
Posts: 1,963
Releases: 4
On Forums: 12 years 1 week
Thanks: 680 time(s)
Russian Federation


Go to the top of the page
  Insert nick Quick quote
+Quote Post
post Feb 14 2020, 14:48:59
Post #4

Четыре Литра
****
Group: Металариец
Posts: 348
Releases: 0
From: Лыткарино
On Forums: 1 year 2 months
Thanks: 83 time(s)
Russian Federation


Технически всё хорошо, но слушается как "жмякающая" коллаборация скучных штампов. Не понравилось.
Go to the top of the page
  Insert nick Quick quote
+Quote Post
post Feb 16 2020, 14:03:06
Post #5

Ъ
**************
Group: Металариец
Posts: 10,167
Releases: 9
On Forums: 11 years 6 months
Thanks: 2049 time(s)
Sweden


Третьесорт, клиповая релентнес еще более менее.
Go to the top of the page
  Insert nick Quick quote
+Quote Post

Reply to this topicStart new topic
1 User(s) are reading this topic (1 Guests and 0 Anonymous Users)
0 Members:

 



- Lo-Fi Version Support form
Copyrights and abuse reports form
Time is now: 6th August 2020 - 20:00:10