Welcome Guest ( Log In | Register )

> Releases Upload / Добавление релизов

Добавить релиз тут / Click here to add release
Рекомендованные обменники / Recommended file shares

 
Reply to this topicStart new topic
> Teratolith - Eclipse II [ep] (2020), Black/Death Metal/Ambient
post Feb 13 2020, 16:32:33
Post #1

Serial Uploader
Group Icon
Group: V.I.P
Posts: 36,984
Releases: 35167
From: Lithuania
On Forums: 11 years 8 months
Thanks: 414301 time(s)
Lithuania


(IMG:http://metalarea.org/images/audiocovers/2020_Feb/acov_tid333768_thumb.png)

*Artist: Teratolith
*Album: Eclipse II [ep]
*Year: 2020
*Genre: Black/Death Metal/Ambient
*Country: United States (IMG:http://metalarea.org/forum/style_images/flags/United%20States.png)
*Format: mp3@CBR320kbps
*Size: 44MB

Tracklist:
01. Five. Thanatomorphosis. 05:27
02. Six. 03:52
03. Seven. 04:11
04. Eight. Eclipse. 04:53
******************************
Total playing time: 18:23



Technical info
(IMG:http://metalarea.org/images/spectrogram/2020_Feb/49b74221cb2a310f9f7743759c614c08.png)
Input File: 01. Five. Thanatomorphosis..mp3
Channels : 2
Sample Rate : 44100
Precision : 16-bit
Duration : 00:05:27.10 = 14424978 samples = 24532.3 CDDA sectors
File Size : 13.2M
Bit Rate : 323k
Sample Encoding: MPEG audio (layer I, II or III)
Comments :
Title=Five. Thanatomorphosis.
Artist=Teratolith
Album=Eclipse II
Tracknumber=1
Year=2020



Register


Go to the top of the page
  Insert nick Quick quote
+Quote Post

Reply to this topicStart new topic
1 User(s) are reading this topic (1 Guests and 0 Anonymous Users)
0 Members:

 



- Lo-Fi Version Support form
Copyrights and abuse reports form
Time is now: 19th February 2020 - 23:08:23