Welcome Guest ( Log In | Register )

> Releases Upload / Добавление релизов

Добавить релиз тут / Click here to add release
Рекомендованные обменники / Recommended file shares

 
Reply to this topicStart new topic
> Timescale - Flows Of The Mind [ep] (2020), Power Metal
post Feb 13 2020, 17:49:58
Post #1

Каждое ваше "Спасибо" помогает мне понять, что я делаю новости не напрасно.
**************
Group: Металариец
Posts: 2,340
Releases: 2064
From: Одесса
On Forums: 11 years 8 months
Thanks: 18793 time(s)
Ukraine


(IMG:http://metalarea.org/images/audiocovers/2020_Feb/acov_tid333771_thumb.jpeg)

*Artist: Timescale
*Album: Flows Of The Mind [ep]
*Year: 2020
*Genre: Power Metal
*Country: International (IMG:http://metalarea.org/forum/style_images/flags/International.png)
*Format: mp3@CBR320kbps
*Size: 55MB

Tracklist:
1.Hope 03:50
2.Land of the Hollow 03:54
3.The River Flows 03:55
4.Castle Mountain 05:27
5.Deep Inside 01:58
6.The River Flows (Acoustic) 04:04
7.Deep Inside (Acoustic) 01:43
******************************
Total playing time: 24:51

(IMG:http://metalarea.org/images/youtube.png)

Extended info
Line - up:

Nicolas Humeniuk - Drums (Athernum, Morwen)
Cleiton Modesto - Guitars
Leonel Silva - Vocals (Endymion, Fantasy Opus, Hourswill, Mindfeeder, Negacy, ex-Scar for Life)


Technical info
(IMG:http://metalarea.org/images/spectrogram/2020_Feb/87e9fd95c22934049999005a229f00ed.png)
Input File: 06. The River Flows (Acoustic).mp3
Channels : 2
Sample Rate : 44100
Precision : 16-bit
Duration : 00:04:04.44 = 10779980 samples = 18333.3 CDDA sectors
File Size : 9.78M
Bit Rate : 320k
Sample Encoding: MPEG audio (layer I, II or III)
Comments :
Title=The River Flows (Acoustic)
Artist=Timescale
Album=Flows of the Mind (EP)
Tracknumber=6
Year=2020
Genre=Power Metal



Register


Go to the top of the page
  Insert nick Quick quote
+Quote Post

Reply to this topicStart new topic
1 User(s) are reading this topic (1 Guests and 0 Anonymous Users)
0 Members:

 



- Lo-Fi Version Support form
Copyrights and abuse reports form
Time is now: 19th February 2020 - 23:29:39