Welcome Guest ( Log In | Register )

> Releases Upload / Добавление релизов

Добавить релиз тут / Click here to add release
Рекомендованные обменники / Recommended file shares

 
Reply to this topicStart new topic
> Morana - Prazna Trpeza Moje Pustoline [ep] (2019), Pagan/Melodic Black Metal
post Feb 13 2020, 19:12:45
Post #1

Каждое ваше "Спасибо" помогает мне понять, что я делаю новости не напрасно.
**************
Group: Металариец
Posts: 2,340
Releases: 2064
From: Одесса
On Forums: 11 years 8 months
Thanks: 18793 time(s)
Ukraine


(IMG:http://metalarea.org/images/audiocovers/2020_Feb/acov_tid333772_thumb.jpg)

*Artist: Morana
*Album: Prazna Trpeza Moje Pustoline [ep]
*Year: 2019
*Genre: Pagan/Melodic Black Metal
*Country: Montenegro (IMG:http://metalarea.org/forum/style_images/flags/Montenegro.png)
*Format: mp3@CBR320kbps
*Size: 50MB

Tracklist:
1.Goro Crna 02:28
2.Svarga 04:02
3.Močvara 05:07
4.Pustolina 06:42
5.Outro 02:10
******************************
Total playing time: 20:29



Extended info
FLAC RIP

Line - up:

Nemanja Grbović - Unknown


Technical info
(IMG:http://metalarea.org/images/spectrogram/2020_Feb/1023730a092010879ce8df15da8db295.png)
Input File: 03. Močvara.mp3
Channels : 2
Sample Rate : 44100
Precision : 16-bit
Duration : 00:05:07.40 = 13556472 samples = 23055.2 CDDA sectors
File Size : 12.3M
Bit Rate : 320k
Sample Encoding: MPEG audio (layer I, II or III)
Comments :
Title=Mocvara
Artist=Morana
Album=Prazna Trpeza Moje Pustoline (EP)
Tracknumber=3
Year=2019
Genre=Pagan/Melodic Black Metal



Register


Go to the top of the page
  Insert nick Quick quote
+Quote Post

Reply to this topicStart new topic
1 User(s) are reading this topic (1 Guests and 0 Anonymous Users)
0 Members:

 



- Lo-Fi Version Support form
Copyrights and abuse reports form
Time is now: 19th February 2020 - 23:07:44