Welcome Guest ( Log In | Register )

> Kvelertak - Splid (2020), Black 'n' Roll/Hardcore/Punk
post Feb 13 2020, 20:17:45
Post #1

Правь статус, ####!111
**************
Group: Металариец
Posts: 3,895
Releases: 3555
From: Одесса
On Forums: 12 years 10 months
Thanks: 38000 time(s)
Ukraine


(IMG:http://metalarea.org/images/audiocovers/2020_Feb/acov_tid333774_thumb.jpeg)

*Artist: Kvelertak
*Album: Splid
*Year: 2020
*Genre: Black 'n' Roll/Hardcore/Punk
*Country: Norway (IMG:http://metalarea.org/forum/style_images/flags/Norway.png)
*Format: mp3@CBR320kbps
*Size: 136MB

Tracklist:
01. Rogaland 5:23
02. Crack of Doom (feat. Troy Sanders) 3:54
03. Necrosoft 3:00
04. Discord 4:13
05. Bråtebrann 6:58
06. Uglas Hegemoni 3:33
07. Fanden ta dette hull! 7:51
08. Tevling 4:08
09. Stevnemøte med Satan 4:29
10. Delirium tremens 8:11
11. Ved bredden av Nihil 6:31
******************************
Total playing time: 58:11

Extended info




Technical info
(IMG:http://metalarea.org/images/spectrogram/2020_Feb/cc8ba0e23a5c3703185b738b6ab56038.png)
Input File: 02. Crack of Doom (feat. Troy Sanders).mp3
Channels : 2
Sample Rate : 44100
Precision : 16-bit
Duration : 00:03:54.02 = 10320326 samples = 17551.6 CDDA sectors
File Size : 9.36M
Bit Rate : 320k
Sample Encoding: MPEG audio (layer I, II or III)
Comments :
Title=Crack of Doom (feat. Troy Sanders)
Artist=Kvelertak, Troy Sanders
Album=Splid
Tracknumber=2
Year=2020
Genre=Black`n`Roll



Register

Register


This post has been edited by DarkHorde: Nov 9 2020, 13:04:42


Go to the top of the page
  Insert nick Quick quote
+Quote Post
 
Start new topic
Replies (1 - 7)
post Feb 14 2020, 17:33:21
Post #2
BAN
Banned till
Jun 20 2038, 18:19:39



не, мне в принципе пoxep, я еще вчера днем с рутрекера стянул, но че в файнде?
может было б интереснее обсудить эту красоту, вместо того, чтобы размазывать гoвно и сопли по теме с исаном?
Go to the top of the page
  Insert nick Quick quote
+Quote Post
post Feb 14 2020, 19:54:15
Post #3

кручу наждак
**************
Group: Металариец
Posts: 4,873
Releases: 103
From: Самара
On Forums: 10 years 11 months
Thanks: 3882 time(s)
Russian Federation


Адское нагромождение самоповторов, если не сказать самоплагиата.
Тенденция повторяется - каждый второй альбом - пшик.
Go to the top of the page
  Insert nick Quick quote
+Quote Post
post Nov 9 2020, 12:10:53
Post #4

0%Tolerance
*********
Group: Металариец
Posts: 917
Releases: 0
On Forums: 8 years 7 months
Thanks: 163 time(s)
Unknown


Полупокерская мазня на облоге в очередной раз отпугивает значительную часть потенциальных слушателей, прежде не слыхавших о группе. Можно не вестись на это. Внутри этого стаффа, к моему сожалению, что собственно не принципиально, - потерявший в весе (в мясе) рогенролл. Однако, - всё такой же угарный и плясовой рогенролл.
Go to the top of the page
  Insert nick Quick quote
+Quote Post
post Nov 23 2020, 18:07:33
Post #5

Шесть Литров
******
Group: Металариец
Posts: 664
Releases: 32
From: Санкт-Петербург
On Forums: 14 years 11 months
Thanks: 2110 time(s)
Russian Federation


Так себе альбом, довольно невзрачный, и хронометражем своим к концу меня утомил, для такого стиля минут 40 было бы в самый раз. Но зато есть два хита - угарная Crack Of Doom и Tevling, вот таких бы вещей, да побольше.
Go to the top of the page
  Insert nick Quick quote
+Quote Post
post Apr 14 2021, 21:11:53
Post #6

Ёлд ХеллоВяйне
Group Icon
Group: V.I.P
Posts: 31,342
Releases: 144
From: Питер
On Forums: 14 years 5 months
Thanks: 19428 time(s)
Russian Federation


Переслушал с оказией, и ведь хорошо!
Go to the top of the page
  Insert nick Quick quote
+Quote Post
post Apr 15 2021, 09:52:35
Post #7

Шесть Литров
******
Group: Металариец
Posts: 664
Releases: 32
From: Санкт-Петербург
On Forums: 14 years 11 months
Thanks: 2110 time(s)
Russian Federation


ЦИТАТА(Old Vyaine @ 14th April 2021 - 23:11:53) *
Переслушал с оказией, и ведь хорошо!

Ну и как тебе те 2 вещи, о которых я выше написал, выделяются по-твоему на фоне остального? Я себе их даже в плеер в специальную папку скинул, частенько гоняю, а все остальное какое-то мне не интересное.
Go to the top of the page
  Insert nick Quick quote
+Quote Post
post Apr 15 2021, 10:13:25
Post #8

Ёлд ХеллоВяйне
Group Icon
Group: V.I.P
Posts: 31,342
Releases: 144
From: Питер
On Forums: 14 years 5 months
Thanks: 19428 time(s)
Russian Federation


Мне две последних больше зашли.

А по поводу отличий — надо конкретно эти переслушивать.
Go to the top of the page
  Insert nick Quick quote
+Quote Post

Reply to this topicStart new topic
1 User(s) are reading this topic (1 Guests and 0 Anonymous Users)
0 Members:

 



- Lo-Fi Version Support form
Copyrights and abuse reports form
Time is now: 19th April 2021 - 10:13:37