Welcome Guest ( Log In | Register )

> Blissful Stream - When The Wolves Start To Circle (2020), Doom Metal
post Feb 13 2020, 20:28:40
Post #1

Маньяк
**********
Group: Металариец
Posts: 1,361
Releases: 232
On Forums: 11 years 8 months
Thanks: 4761 time(s)
Russian Federation


(IMG:http://metalarea.org/images/audiocovers/2020_Feb/acov_tid333775_thumb.jpg)

*Artist: Blissful Stream
*Album: When The Wolves Start To Circle
*Year: 2020
*Genre: Doom Metal
*Country: Sweden (IMG:http://metalarea.org/forum/style_images/flags/Sweden.png)
*Format: mp3@CBR320kbps
*Size: 68MB

Tracklist:
01. We See the Light
02. When the Wolves Start to Circle
03. Sow the Seeds of Discontent
04. Covenant of Decay
05. Once Alive
06. Old Wounds
07. War of the Righteous
08. City of Dead Souls
******************************
Total playing time: 29:47



Extended info
(IMG:https://www.metal-archives.com/images/3/5/4/0/3540426267_photo.jpg)

Equimanthorn Vocals, Guitars, Bass, Drums (2016-present)

releases February 14, 2020

Sounds and layout by Martin Sällström.
Recorded and mixed in Studio Sinnesfrid.
Mastered by Brad Boatright at Audiosiege.


Technical info
(IMG:http://metalarea.org/images/spectrogram/2020_Feb/58a761ff14e4f7294bf08ae8a00a26d1.png)
Input File: 08-City of Dead Souls.mp3
Channels : 2
Sample Rate : 44100
Precision : 16-bit
Duration : 00:03:15.31 = 8612951 samples = 14647.9 CDDA sectors
File Size : 7.81M
Bit Rate : 320k
Sample Encoding: MPEG audio (layer I, II or III)
Comments :
Title=City of Dead Souls
Artist=Blissful Stream
Album=When the Wolves Start to Circle
Tracknumber=8/8
Year=2020
Genre=Doom Metal



Register


Go to the top of the page
  Insert nick Quick quote
+Quote Post
 
Start new topic
Replies (1 - 3)
post Feb 14 2020, 18:43:47
Post #2
BAN
Banned till
Jun 20 2038, 18:19:39



черт, это ж из песта чувак. срочно качаю например.
Go to the top of the page
  Insert nick Quick quote
+Quote Post
post Feb 15 2020, 13:30:14
Post #3

Шесть Литров
******
Group: Металариец
Posts: 631
Releases: 5
From: Ивантеевка, Московская область
On Forums: 12 years 7 months
Thanks: 239 time(s)
Russian Federation


Какой-то это не doom, кмк. (IMG:style_emoticons/default/hmm.gif)
Go to the top of the page
  Insert nick Quick quote
+Quote Post
post Feb 15 2020, 13:51:13
Post #4
BAN
Banned till
Jun 20 2038, 18:19:39



ЦИТАТА(Ice Gnoll @ Feb 15 2020, 14:30:14) *
Какой-то это не doom, кмк. (IMG:style_emoticons/default/hmm.gif)


дум был на предыдущих миниках, и неплохой. а тут харда типа vojd. модная тема походу.
Go to the top of the page
  Insert nick Quick quote
+Quote Post

Reply to this topicStart new topic
1 User(s) are reading this topic (1 Guests and 0 Anonymous Users)
0 Members:

 



- Lo-Fi Version Support form
Copyrights and abuse reports form
Time is now: 5th August 2020 - 20:40:51