Welcome Guest ( Log In | Register )

> Releases Upload / Добавление релизов

Добавить релиз тут / Click here to add release
Рекомендованные обменники / Recommended file shares

> Dangerous Project - Cosmic Vision (2020), Neo-Classical Power Metal
post Feb 13 2020, 20:50:02
Post #1

Восемь Литров
********
Group: Металариец
Posts: 842
Releases: 127
On Forums: 11 years 3 months
Thanks: 2357 time(s)
Russian Federation


(IMG:http://metalarea.org/images/audiocovers/2020_Feb/acov_tid333776_thumb.jpg)

*Artist: Dangerous Project
*Album: Cosmic Vision
*Year: 2020
*Genre: Neo-Classical Power Metal
*Country: Peru (IMG:http://metalarea.org/forum/style_images/flags/Peru.png)
*Format: mp3@CBR320kbps
*Size: 108MB

Tracklist:
01. Evil Strike
02. Hide in the Shadows
03. Burning Angel
04. Cosmic Vision
05. Keeper of the Sun
06. The Fire in My Heart
07. She Doesn’t Believe in Love
08. Never Surrender
09. Into the Eternity
10. Point of No Return
11. Guardian del Sol (Bonus Track)
12. El Fuego En Mi Corazón (Bonus Track)
******************************
Total playing time: 47:02

Preview 1

Extended info
Lineup:
Jose Gaona - Vocals
Oscar J. Martin - Guitars
Eddy Geott - Bass
Luber Elend - Keyboards
Miguel Franco - Drums


Technical info
(IMG:http://metalarea.org/images/spectrogram/2020_Feb/dea97817a61ced32154e03836e7de250.png)
Input File: 02-Hide in the Shadows.mp3
Channels : 2
Sample Rate : 44100
Precision : 16-bit
Duration : 00:04:26.94 = 11771922 samples = 20020.3 CDDA sectors
File Size : 10.7M
Bit Rate : 320k
Sample Encoding: MPEG audio (layer I, II or III)
Comments :
Title=Hide in the Shadows
Artist=Dangerous Project
Album=Cosmic Vision
Tracknumber=2/12
Year=2020
Genre=Neo-Classical Power Metal



Register


Go to the top of the page
  Insert nick Quick quote
+Quote Post
 
Start new topic
Replies (1 - 2)
post Feb 14 2020, 09:59:38
Post #2

Тридцать лет на борту "Тяжёлого" крейсера
**************
Group: Металариец
Posts: 2,167
Releases: 0
From: Питер
On Forums: 12 years 8 months
Thanks: 573 time(s)
Russian Federation


Банальщина, сотни раз и покруче сыгранная другими группами
Go to the top of the page
  Insert nick Quick quote
+Quote Post
post Feb 14 2020, 10:07:11
Post #3

Маньяк
**********
Group: Металариец
Posts: 1,279
Releases: 0
From: Russian Federation - St.Petersburg
On Forums: 10 years 11 months
Thanks: 308 time(s)
Russian Federation


https://www.youtube.com/results?search_quer...+Cosmic+Vision+
Go to the top of the page
  Insert nick Quick quote
+Quote Post

Reply to this topicStart new topic
2 User(s) are reading this topic (2 Guests and 0 Anonymous Users)
0 Members:

 



- Lo-Fi Version Support form
Copyrights and abuse reports form
Time is now: 19th February 2020 - 23:09:07