Welcome Guest ( Log In | Register )

 
Reply to this topicStart new topic
> Elcrost - Benighted & Unrequited (2020), Black Metal
post Feb 13 2020, 23:08:14
Post #1

Маньяк
**********
Group: Металариец
Posts: 1,361
Releases: 232
On Forums: 11 years 8 months
Thanks: 4761 time(s)
Russian Federation


(IMG:http://metalarea.org/images/audiocovers/2020_Feb/acov_tid333777_thumb.jpg)

*Artist: Elcrost
*Album: Benighted & Unrequited
*Year: 2020
*Genre: Black Metal
*Country: Vietnam (IMG:http://metalarea.org/forum/style_images/flags/Vietnam.png)
*Format: mp3@CBR320kbps
*Size: 85MB

Tracklist:
01. The Derelict Piece of My Heart Lies Deep Beneath the Forest 03:25
02. The Worm 05:25
03. Ox Blood 08:42
04. Forevermore 04:12
05. Ethereal 07:29
06. The Mountain of Eternal Winter 08:00
******************************
Total playing time: 37:13



Extended info






Technical info
(IMG:http://metalarea.org/images/spectrogram/2020_Feb/0e8a057b0ea0dcff83328065926cfa96.png)
Input File: 06-The Mountain of Eternal Winter.mp3
Channels : 2
Sample Rate : 44100
Precision : 16-bit
Duration : 00:08:00.06 = 21170426 samples = 36004.1 CDDA sectors
File Size : 19.2M
Bit Rate : 320k
Sample Encoding: MPEG audio (layer I, II or III)
Comments :
Title=The Mountain of Eternal Winter
Artist=Elcrost
Album=Benighted & Unrequited
Tracknumber=6
Year=2020
Genre=Black Metal



Register


Go to the top of the page
  Insert nick Quick quote
+Quote Post

Reply to this topicStart new topic
1 User(s) are reading this topic (1 Guests and 0 Anonymous Users)
0 Members:

 



- Lo-Fi Version Support form
Copyrights and abuse reports form
Time is now: 5th August 2020 - 20:51:21