Welcome Guest ( Log In | Register )

> Trauerkult - Drained & Purged (2019), Post-Black Metal
post Feb 16 2020, 22:02:20
Post #1

ZEHTAN!
******
Group: Металариец
Posts: 697
Releases: 32
From: Germany
On Forums: 15 years 6 months
Thanks: 1254 time(s)
Germany


(IMG:http://metalarea.org/images/audiocovers/2020_Feb/acov_tid333864_thumb.jpg)

*Artist: Trauerkult
*Album: Drained & Purged
*Year: 2019
*Genre: Post-Black Metal
*Country: Antarctica (IMG:http://metalarea.org/forum/style_images/flags/Antarctica.png)
*Format: mp3@CBR320kbps
*Size: 82MB

Tracklist:
01. Perception 01:52
02. Trauerkult 07:48
03. Fear, Pt. I (Crawl) 05:57
04. Delusion 03:19
05. Fear, Pt. II (Revive) 03:44
06. Rage 04:15
07. Drained & Purged 05:09
08. Clarity 02:56
******************************
Total playing time: 35:00



Extended info
Password: metalarea.org

Enjoy!
(IMG:style_emoticons/default/smile1.gif)


Technical info
(IMG:http://metalarea.org/images/spectrogram/2020_Feb/4d316672ad5c7ba548ba3ff25079bc7c.png)
Input File: 01-Trauerkult-Perception.mp3
Channels : 2
Sample Rate : 44100
Precision : 16-bit
Duration : 00:01:52.07 = 4942463 samples = 8405.55 CDDA sectors
File Size : 4.49M
Bit Rate : 320k
Sample Encoding: MPEG audio (layer I, II or III)
Comments :
Title=Perception
Artist=Trauerkult
Album=Drained & Purged
Tracknumber=1/8
Year=2019
Genre=Post-Black Metal



Register


Go to the top of the page
  Insert nick Quick quote
+Quote Post
 
Start new topic
Replies (1 - 6)
post Feb 17 2020, 03:18:44
Post #2

Два Литра
**
Group: Завсегдатай
Posts: 107
Releases: 0
On Forums: 6 years 6 months
Thanks: 81 time(s)
Unknown


ЦИТАТА(craP_cillA @ 16th February 2020 - 22:02:20) *
Trauerkult - Drained & Purged (2020)

А как его на трекере умудрились добавить Добавлено: 28/12/2019 21:20:10 )
released December 12, 2019


Thanks:
Go to the top of the page
  Insert nick Quick quote
+Quote Post
post Feb 17 2020, 03:18:49
Post #3

Три Литра
***
Group: Завсегдатай
Posts: 273
Releases: 0
From: Россия
On Forums: 9 years 7 months
Thanks: 91 time(s)
Russian Federation


released December 12, 2019



Страна: Antarctica (IMG:style_emoticons/default/1488.gif) Это где такая страна?На какой карте мира?Снова инфа на дурака,как и год релиза,якобы,2020? (IMG:style_emoticons/default/1488.gif)
Go to the top of the page
  Insert nick Quick quote
+Quote Post
post Feb 17 2020, 03:21:49
Post #4

Два Литра
**
Group: Завсегдатай
Posts: 107
Releases: 0
On Forums: 6 years 6 months
Thanks: 81 time(s)
Unknown


ЦИТАТА(Kehl05 @ 17th February 2020 - 03:18:49) *
Страна: Antarctica Это где такая страна?На какой карте мира?

Тут он прав.
Country : Antarctica
Там же на бэндкампе.
Go to the top of the page
  Insert nick Quick quote
+Quote Post
post Feb 17 2020, 03:40:28
Post #5

ZEHTAN!
******
Group: Металариец
Posts: 697
Releases: 32
From: Germany
On Forums: 15 years 6 months
Thanks: 1254 time(s)
Germany


QUOTE(Hellraiser @ Feb 17 2020, 03:18:44) *
А как его на трекере умудрились добавить Добавлено: 28/12/2019 21:20:10 )
released December 12, 2019


corrected! (IMG:style_emoticons/default/smile1.gif)
Go to the top of the page
  Insert nick Quick quote
+Quote Post
post Feb 17 2020, 10:49:58
Post #6

Два Литра
**
Group: Завсегдатай
Posts: 159
Releases: 2
From: г. Нальчик
On Forums: 8 years 9 months
Thanks: 573 time(s)
Russian Federation


Trauerkult - Drained and Purged (2019), FLAC (tracks), Lossless 236 MB
Register


Go to the top of the page
  Insert nick Quick quote
+Quote Post
post Feb 17 2020, 17:15:29
Post #7

Common dweller of hell
**************
Group: Металариец
Posts: 4,012
Releases: 12
From: Dnipro
On Forums: 13 years 2 months
Thanks: 1566 time(s)
Ukraine


Вполне так себе не плохо. (IMG:style_emoticons/default/dooo.gif)


Thanks:
Go to the top of the page
  Insert nick Quick quote
+Quote Post

Reply to this topicStart new topic
2 User(s) are reading this topic (2 Guests and 0 Anonymous Users)
0 Members:

 



- Lo-Fi Version Support form
Copyrights and abuse reports form
Time is now: 25th September 2021 - 03:49:19