Welcome Guest ( Log In | Register )

> И неформату есть предел.

Рэп/хип-хоп/шансон/поп удаляются. Для них есть свои порталы.

> Sigillum S - The Irresistible Art Of Space Colonization And Its Mutation Implications (2018), Industrial/Electronic/Dark Ambient/Experimental (D10)
post Feb 18 2020, 22:21:04
Post #1

Три Литра
***
Group: Завсегдатай
Posts: 229
Releases: 8
From: Санкт-Петербург
On Forums: 14 years 2 weeks
Thanks: 792 time(s)
Russian Federation


(IMG:http://metalarea.org/images/audiocovers/2020_Feb/acov_tid333928_thumb.jpg)

*Artist: Sigillum S
*Album: The Irresistible Art Of Space Colonization And Its Mutation Implications
*Year: 2018
*Genre: Industrial/Electronic/Dark Ambient/Experimental
*Country: Italy (IMG:http://metalarea.org/forum/style_images/flags/Italy.png)
*Format: mp3@CBR320kbps
*Size: 111MB

Tracklist:
01. Occult Storage For Pan-Dronic Glossalia 04:05
02. Wrong Proto - Matter Gravitation 04:56
03. Genetically-Engineered Insects 06:46
04. When Comets Become Organic Households 04:36
05. Through The Endless Streams Of Satellite Euphoria 07:27
06. Immortality 04:26
07. Deep Void Plantations 04:33
08. Let Ghosts And Floating Bodies Invade You 03:28
09. Celestial Heliocentric Cultures 07:41
******************************
Total playing time: 47:58



Extended info
Крайний альбом заслуженного итальянского индустриального коллектива. В составе многостаночник Eraldo Bernocchi (SIMM, Equations Of Eternity, Ashes, Metallic Taste Of Blood, Obake, Black Engine, etc.).


Technical info
(IMG:http://metalarea.org/images/spectrogram/2020_Feb/95ef33da59e0c1b4bceeb2d671b0a660.png)
Input File: 02 - Wrong Proto - Matter Gravitation.mp3
Channels : 2
Sample Rate : 44100
Precision : 16-bit
Duration : 00:04:56.42 = 13072078 samples = 22231.4 CDDA sectors
File Size : 11.9M
Bit Rate : 320k
Sample Encoding: MPEG audio (layer I, II or III)
Comments :
Title=Wrong Proto - Matter Gravitation
Artist=Sigillum S
Album=The Irresistible Art Of Space Colonization And Its Mutation Implications
Tracknumber=02
Year=2018
Genre=Industrial/Electronic/Dark Ambient/Experimental



Register


Go to the top of the page
  Insert nick Quick quote
+Quote Post
 
Start new topic
Replies (1 - 4)
post Feb 19 2020, 04:27:21
Post #2

Два Литра
**
Group: Завсегдатай
Posts: 103
Releases: 3
On Forums: 5 years 6 months
Thanks: 81 time(s)
Russian Federation


Вот бы ещё альбом Demonology 2016 года
Go to the top of the page
  Insert nick Quick quote
+Quote Post
post Feb 19 2020, 05:58:43
Post #3

Три Литра
***
Group: Завсегдатай
Posts: 229
Releases: 8
From: Санкт-Петербург
On Forums: 14 years 2 weeks
Thanks: 792 time(s)
Russian Federation


ЦИТАТА(gnosiis @ 19th February 2020 - 06:27:21) *
Вот бы ещё альбом Demonology 2016 года

Этого нет (он вообще в цифре выходил разве?), а вот Astronomic Horror позже выложу.
Go to the top of the page
  Insert nick Quick quote
+Quote Post
post Feb 19 2020, 16:41:17
Post #4

Два Литра
**
Group: Завсегдатай
Posts: 103
Releases: 3
On Forums: 5 years 6 months
Thanks: 81 time(s)
Russian Federation


А вот хз даже не знаю был в цифровом или нет, но ведь его мог кто то оцифровать, может быть когда нибудь и появиться...
Go to the top of the page
  Insert nick Quick quote
+Quote Post
post Feb 19 2020, 17:40:21
Post #5

Три Литра
***
Group: Завсегдатай
Posts: 229
Releases: 8
From: Санкт-Петербург
On Forums: 14 years 2 weeks
Thanks: 792 time(s)
Russian Federation


ЦИТАТА(gnosiis @ 19th February 2020 - 18:41:17) *
А вот хз даже не знаю был в цифровом или нет, но ведь его мог кто то оцифровать, может быть когда нибудь и появиться...

Да мог бы, конечно, но, видать, никто еще не удосужился, ибо не попадался он мне нигде.
Go to the top of the page
  Insert nick Quick quote
+Quote Post

Reply to this topicStart new topic
1 User(s) are reading this topic (1 Guests and 0 Anonymous Users)
0 Members:

 



- Lo-Fi Version Support form
Copyrights and abuse reports form
Time is now: 6th June 2020 - 12:11:35