Welcome Guest ( Log In | Register )

> И неформату есть предел.

Рэп/хип-хоп/шансон/поп удаляются. Для них есть свои порталы.

 
Reply to this topicStart new topic
> Sigillum S - Astronomic Horror (2016), Industrial/Dark Ambient/Noise/Experimental (D11)
post Feb 19 2020, 17:49:11
Post #1

Три Литра
***
Group: Завсегдатай
Posts: 229
Releases: 8
From: Санкт-Петербург
On Forums: 14 years 2 weeks
Thanks: 792 time(s)
Russian Federation


(IMG:http://metalarea.org/images/audiocovers/2020_Feb/acov_tid333955_thumb.jpg)

*Artist: Sigillum S
*Album: Astronomic Horror
*Year: 2016
*Genre: Industrial/Dark Ambient/Noise/Experimental
*Country: Italy (IMG:http://metalarea.org/forum/style_images/flags/Italy.png)
*Format: mp3@CBR320kbps
*Size: 87MB

Tracklist:
01. Flawless Brothels Behind Fake Moon Crust 03:34
02. Illogical Punishment From Universal Laws 04:05
03. Do They Reap Dissected Bodies On Aborted Space Missions 02:59
04. A Liquefied Craft Crossing Occult Land Among Dimensions 03:39
05. Resonating On Black Death Teeth 04:35
06. Angels Burning Wings On Mercury's White Side 04:44
07. Erogenous Vacuum In Heretic Sciences 04:08
08. Pathological Particles Through Infected Planets 03:36
09. Re-Arranged Futures And Geography From Exploded Systems 02:52
10. Inorganica Suprema 02:52
******************************
Total playing time: 37:05

Technical info
(IMG:http://metalarea.org/images/spectrogram/2020_Feb/ea0a1866934edeb4356788aa3d7528d6.png)
Input File: 02 - Illogical Punishment From Universal Laws.mp3
Channels : 2
Sample Rate : 48000
Precision : 16-bit
Duration : 00:04:05.33 = 11775888 samples ~ 18399.8 CDDA sectors
File Size : 9.95M
Bit Rate : 325k
Sample Encoding: MPEG audio (layer I, II or III)
Comments :
Title=Illogical Punishment From Universal Laws
Artist=Sigillum S
Album=Astronomic Horror
Tracknumber=02
Year=2016
Genre=Industrial/Dark Ambient/Noise/Experimental



Register


Go to the top of the page
  Insert nick Quick quote
+Quote Post

Reply to this topicStart new topic
2 User(s) are reading this topic (2 Guests and 0 Anonymous Users)
0 Members:

 



- Lo-Fi Version Support form
Copyrights and abuse reports form
Time is now: 5th June 2020 - 08:23:17