Welcome Guest ( Log In | Register )

> 

Здесь релизы с живыми прямыми ссылками на lossless

> Nordglanz - Werwolf Revolte (2019), Black Metal/Neofolk (D)
post Feb 19 2020, 18:35:07
Post #1

Каждое ваше "Спасибо" помогает мне понять, что я делаю новости не напрасно.
**************
Group: Металариец
Posts: 2,449
Releases: 2160
From: Одесса
On Forums: 11 years 9 months
Thanks: 20031 time(s)
Ukraine


(IMG:http://metalarea.org/images/audiocovers/2020_Feb/acov_tid333959_thumb.jpg)

*Artist: Nordglanz
*Album: Werwolf Revolte
*Year: 2019
*Genre: Black Metal, Neofolk
*Country: Germany (IMG:http://metalarea.org/forum/style_images/flags/Germany.png)
*Format: mp3@CBR320kbps
*Size: 178MB

Tracklist:
1.Der Pfad 02:12
2.Revolte 09:27
3.Walkyria 08:48
4.Mourning Soul (Absurd cover) 03:14
5.Mit uns oder gegen uns 05:24
6.Totenwanderung 09:38
7.Nova Europa 05:09
8.Zurück in die Wälder 02:56
9.Volkstod 04:50
10.Werwolf 10:22
11.Der Schächter 04:46
12.Utoya 07:29
******************************
Total playing time: 1:14:15

Extended info
Line - up:

Fußball - Bass (ex-Ahnenerbe, ex-Hyperborean)
Filosoph - Guitars
Njord - Vocals, Guitars (ex-Ahnenerbe, ex-Hyperborean, ex-Paimon)

(IMG:https://www.metal-archives.com/images/3/6/5/6/36564_photo.jpg)


Technical info
(IMG:http://metalarea.org/images/spectrogram/2020_Feb/0b01bb3eb66e2c9b33120641b5afbffe.png)
Input File: 07. Nova Europa.mp3
Channels : 2
Sample Rate : 44100
Precision : 16-bit
Duration : 00:05:09.39 = 13644011 samples = 23204.1 CDDA sectors
File Size : 12.4M
Bit Rate : 321k
Sample Encoding: MPEG audio (layer I, II or III)
Comments :
Title=Nova Europa
Artist=Nordglanz
Album=Werwolf Revolte
Tracknumber=07
Year=2019
Genre=Black Metal, Neofolk



Register


Go to the top of the page
  Insert nick Quick quote
+Quote Post
 
Start new topic
Replies (1 - 6)
post Feb 20 2020, 01:43:16
Post #2

Два Литра
**
Group: Завсегдатай
Posts: 148
Releases: 0
On Forums: 3 years 7 months
Thanks: 14 time(s)
Unknown


подкиньте flac
Go to the top of the page
  Insert nick Quick quote
+Quote Post
post Feb 20 2020, 15:26:01
Post #3

Литр
*
Group: Подсевший
Posts: 88
Releases: 0
On Forums: 1 month 1 week
Thanks: 55 time(s)
Unknown


Ох, после Absurd и Bilskirnir одна из любимейший правых германоязычных банд
Альбом ожидаемо просто бомба
Go to the top of the page
  Insert nick Quick quote
+Quote Post
post Feb 21 2020, 16:55:01
Post #4

Правь статус, ####!111
**************
Group: Металариец
Posts: 2,905
Releases: 8
From: Dnipro
On Forums: 11 years 8 months
Thanks: 922 time(s)
Ukraine


ЦИТАТА(Der_Hexer @ Feb 20 2020, 16:26:01) *
Альбом ожидаемо просто бомба
А на деле петардой окажется (IMG:style_emoticons/default/1488.gif)

ЦИТАТА(FlammenTod666 @ Feb 20 2020, 02:43:16) *
подкиньте flac
Присоединяюсь (IMG:style_emoticons/default/pray.gif)
Go to the top of the page
  Insert nick Quick quote
+Quote Post
post Feb 21 2020, 17:06:49
Post #5

Пять Литров
*****
Group: Металариец
Posts: 401
Releases: 0
On Forums: 9 months 2 weeks
Thanks: 287 time(s)
Russian Federation


ЦИТАТА(Der_Hexer @ Feb 20 2020, 17:26:01) *
Ох, после Absurd и Bilskirnir одна из любимейший правых германоязычных банд
Альбом ожидаемо просто бомба

В целом группа сильная, да. Но на последних альбомах менее убедительная, на этом в том числе.
Go to the top of the page
  Insert nick Quick quote
+Quote Post
post Feb 21 2020, 19:41:12
Post #6

Маньяк
**********
Group: Металариец
Posts: 1,010
Releases: 4
From: Харьков
On Forums: 11 years 7 months
Thanks: 357 time(s)
Ukraine




Thanks:
(1) DarkHorde,
Go to the top of the page
  Insert nick Quick quote
+Quote Post
post Mar 4 2020, 16:23:31
Post #7


Group Icon
Group: S-moderation team
Posts: 14,755
Releases: 1440
From: Zagreb
On Forums: 9 years 1 month
Thanks: 64650 time(s)
Croatia


Register


Go to the top of the page
  Insert nick Quick quote
+Quote Post

Reply to this topicStart new topic
1 User(s) are reading this topic (1 Guests and 0 Anonymous Users)
0 Members:

 



- Lo-Fi Version Support form
Copyrights and abuse reports form
Time is now: 29th March 2020 - 03:00:49