Welcome Guest ( Log In | Register )

> Schizogen - Spawn Of Almighty Essence (2020), Brutal Death Metal
post Feb 20 2020, 13:03:32
Post #1

Serial Uploader
Group Icon
Group: V.I.P
Posts: 37,136
Releases: 35320
From: Lithuania
On Forums: 11 years 11 months
Thanks: 419629 time(s)
Lithuania


(IMG:http://metalarea.org/images/audiocovers/2020_Feb/acov_tid333998_thumb.jpg)

*Artist: Schizogen
*Album: Spawn Of Almighty Essence
*Year: 2020
*Genre: Brutal Death Metal
*Country: Ukraine (IMG:http://metalarea.org/forum/style_images/flags/Ukraine.png)
*Format: mp3@CBR320kbps
*Size: 94MB

Tracklist:
01. Birth of the Great Mass 05:18
02. Galaxies Systematic Infection 05:02
03. The Physical Essence of the Devourer 05:23
04. Biological Damage Processes 03:50
05. Roots of the New Civilization 05:44
06. The Genes Recoding 04:14
07. The Last Stage of Colonization 07:21
08. Cold Winds of the New World 02:20
******************************
Total playing time: 39:12



Preview 3

(IMG:http://metalarea.org/images/youtube.png)

Technical info
(IMG:http://metalarea.org/images/spectrogram/2020_Feb/3b0524f465d0d9a95aa2d01ae51c6445.png)
Input File: 02. Galaxies Systematic Infection.mp3
Channels : 2
Sample Rate : 44100
Precision : 16-bit
Duration : 00:05:02.70 = 13349070 samples = 22702.5 CDDA sectors
File Size : 12.2M
Bit Rate : 322k
Sample Encoding: MPEG audio (layer I, II or III)
Comments :
Title=Galaxies Systematic Infection
Artist=Schizogen
Album=Spawn of Almighty Essence
Tracknumber=2
Year=2020
Genre=Brutal Death
Discnumber=1



Register


Go to the top of the page
  Insert nick Quick quote
+Quote Post
 
Start new topic
Replies (1 - 4)
post Mar 2 2020, 09:56:35
Post #2

Правь статус, ####!111
**************
Group: Металариец
Posts: 3,889
Releases: 14
From: Москва и МО
On Forums: 13 years 11 months
Thanks: 1126 time(s)
Russian Federation


А почему вообще ни одного коммента?
По первой прослушке очень бодро. Ничего нового и можно иногда придраться к вокалу, который порой тупо хриплый. В остальном, вкусный бас, бодрый материал.
Облога также хороша.
Вполне достойно пары прослушек.
Go to the top of the page
  Insert nick Quick quote
+Quote Post
post Mar 29 2020, 07:34:43
Post #3

Шесть Литров
******
Group: Металариец
Posts: 600
Releases: 0
From: APATIN, SERBIA, АПАТИН, СЕРБИЯ
On Forums: 12 years 7 months
Thanks: 929 time(s)



Flac

Register
Go to the top of the page
  Insert nick Quick quote
+Quote Post
post Mar 29 2020, 09:51:05
Post #4

...
**************
Group: Металариец
Posts: 4,923
Releases: 512
From: МОРсквы
On Forums: 13 years 7 months
Thanks: 7561 time(s)
Russian Federation


ЦИТАТА(Metalass @ 2nd March 2020 - 11:56:35) *
А почему вообще ни одного коммента?

да потому, что кроме откровенно оффтоповых срачей и выкладывания новых ссылок на скачивание (иногда совершенно ненужных), иных постов за редким исключением на форуме уже давно нет.
Go to the top of the page
  Insert nick Quick quote
+Quote Post
post Mar 29 2020, 12:06:53
Post #5

********
Group: Металариец
Posts: 819
Releases: 9
On Forums: 13 years 7 months
Thanks: 454 time(s)
Norfolk Island


Оригинальный и качественный альбом, о котором действительно стоило бы говорить больше. Не простой БДМ, а с какими-то дивными заходами в атмосферные дебри и в БМ.


Thanks:
(1) Metalass,
Go to the top of the page
  Insert nick Quick quote
+Quote Post

Reply to this topicStart new topic
1 User(s) are reading this topic (1 Guests and 0 Anonymous Users)
0 Members:

 



- Lo-Fi Version Support form
Copyrights and abuse reports form
Time is now: 5th June 2020 - 19:38:31