Welcome Guest ( Log In | Register )

> Saturnalia Temple - Gravity (2020), Stoner/Doom Metal (D)
post Feb 20 2020, 14:49:39
Post #1

Serial Uploader
Group Icon
Group: V.I.P
Posts: 37,532
Releases: 35706
From: Lithuania
On Forums: 12 years 10 months
Thanks: 431406 time(s)
Lithuania


(IMG:http://metalarea.org/images/audiocovers/2020_Feb/acov_tid334007_thumb.jpg)

*Artist: Saturnalia Temple
*Album: Gravity
*Year: 2020
*Genre: Stoner/Doom Metal
*Country: Sweden (IMG:http://metalarea.org/forum/style_images/flags/Sweden.png)
*Format: mp3@CBR320kbps
*Size: 111MB

Tracklist:
01. Tordyvel 01:58
02. Saturnalia Temple 08:31
03. Gravity 09:14
04. Elyzian Fields 05:13
05. Between the Worlds 09:57
06. Bitter Taste 05:49
07. Oannes 04:49
08. Alpha Drakonis 03:04
******************************
Total playing time: 48:35

(IMG:http://metalarea.org/images/myspace.png)


(IMG:http://metalarea.org/images/youtube.png)

Technical info
(IMG:http://metalarea.org/images/spectrogram/2020_Feb/8901437abb0f5e29e1872705dd62be02.png)
Input File: 02 - Saturnalia Temple.mp3
Channels : 2
Sample Rate : 44100
Precision : 16-bit
Duration : 00:08:31.33 = 22549477 samples = 38349.5 CDDA sectors
File Size : 20.5M
Bit Rate : 321k
Sample Encoding: MPEG audio (layer I, II or III)
Comments :
Title=Saturnalia Temple
Artist=Saturnalia Temple
Album=Gravity
Tracknumber=2
Year=2020
Genre=Rock
Discnumber=1



Register


Go to the top of the page
  Insert nick Quick quote
+Quote Post
 
Start new topic
Replies (1 - 7)
post Feb 20 2020, 19:27:40
Post #2
BAN
Banned till
Jun 20 2038, 18:19:39



ну не, тут они совсем загнались


Thanks:
Go to the top of the page
  Insert nick Quick quote
+Quote Post
post Feb 20 2020, 20:10:31
Post #3

Шесть Литров
******
Group: Металариец
Posts: 608
Releases: 1
From: АР Крым, Симферополь
On Forums: 13 years 2 weeks
Thanks: 309 time(s)
Russian Federation


ЦИТАТА(necroscum @ 20th February 2020 - 16:49:39) *
Stoner/Doom Metal


Стонер- это вряд ли. Тягучий монотонный дум "три аккорда два струна" © с треками на 8-10 минут как и на предыдущих релизах - это да.
А вот от стонера и раздолбайского угара или тягучей дымности шаманизма оного здесь явно не заметно.
Вот на дебютной демке шведов от 2007-ого он от части был, это да. )))
Saturnalia Temple - UR [demo] (2007)

З.Ы. В который раз убеждаюсь что люди постят здесь релизы, тупо копируя теги о жанре с метал-архивов, даже не слушая их. (IMG:style_emoticons/default/normal_Homerdisgust3.png)


Thanks:
(1) alikkon,
Go to the top of the page
  Insert nick Quick quote
+Quote Post
post Feb 21 2020, 08:27:33
Post #4

####!111
**************
Group: Металариец
Posts: 4,354
Releases: 129
From: The Mountain Of DOOM
On Forums: 13 years 6 months
Thanks: 6068 time(s)
Russian Federation


ЦИТАТА(Leshiy666 @ 20th February 2020 - 23:10:31) *
З.Ы. В который раз убеждаюсь что люди постят здесь релизы, тупо копируя теги о жанре с метал-архивов, даже не слушая их

Ну так это стоунер дум, а не стоунер рок
Что же это по-твоему?
Go to the top of the page
  Insert nick Quick quote
+Quote Post
post Feb 21 2020, 13:02:56
Post #5

Маньяк
**********
Group: Металариец
Posts: 1,337
Releases: 0
On Forums: 1 year 4 months
Thanks: 1031 time(s)
Russian Federation


Надо послушать, на сплите с Aluk Todolo они мне приглянулись.
Go to the top of the page
  Insert nick Quick quote
+Quote Post
post Feb 21 2020, 13:26:45
Post #6
BAN
Banned till
Dec 8 2021, 03:06:44



ЦИТАТА

Saturnalia Temple


ЦИТАТА
Тягучий монотонный тренд "три прослушал два в уме" с постами на 8-10 минут



Thanks:
(1) Un4given,
Go to the top of the page
  Insert nick Quick quote
+Quote Post
post Feb 22 2020, 09:03:03
Post #7

градусы контрастов
**************
Group: Металариец
Posts: 4,767
Releases: 0
On Forums: 5 years 2 months
Thanks: 3062 time(s)
Unknown


деградэйшн полный.
Go to the top of the page
  Insert nick Quick quote
+Quote Post
post Feb 25 2020, 10:54:58
Post #8

Три Литра
***
Group: Завсегдатай
Posts: 234
Releases: 0
On Forums: 1 year 1 month
Thanks: 152 time(s)
Unknown


ЦИТАТА(atom72 @ Feb 21 2020, 13:02:56) *
Надо послушать, на сплите с Aluk Todolo они мне приглянулись.


Также вспомнился тот четырех дорожковый сплит, на котором все банды представили очень крутые треки.

Послушал Gravity и в целом остался доволен. После невзрачного вступления каждый из последующих треков оставляет как минимум положительное впечатление. Гитарные части на 5, саунд приятный и отдает 80-ми.
Короче весьма добротная работа
Go to the top of the page
  Insert nick Quick quote
+Quote Post

Reply to this topicStart new topic
2 User(s) are reading this topic (2 Guests and 0 Anonymous Users)
0 Members:

 



- Lo-Fi Version Support form
Copyrights and abuse reports form
Time is now: 19th April 2021 - 11:18:25