Welcome Guest ( Log In | Register )

> 

Здесь релизы с живыми прямыми ссылками на lossless

> Sentient Divide - Haunted By Cruelty (2020), Old School Death/Black Metal (D4)
post Feb 22 2020, 00:31:38
Post #1

Правь статус, ####!111
**************
Group: Металариец
Posts: 23,965
Releases: 16844
From: Г.Харьков
On Forums: 8 years 6 months
Thanks: 320557 time(s)
Unknown


(IMG:https://metalarea.org/images/audiocovers/2020_Feb/acov_tid334073_thumb.jpg)

*Artist: Sentient Divide
*Album: Haunted By Cruelty
*Year: 2020
*Genre: Old School Death/Black Metal
*Country: United States (IMG:https://metalarea.org/forum/style_images/flags/United%20States.png)
*Format: mp3@CBR320kbps
*Size: 68MB

Tracklist:
1. Haunted by Cruelty 07:41
2. Ancient Dominion 05:53
3. Spear and Snare 04:49
4. Eternal Conviction 04:59
5. Sacred Kill 04:45
******************************
Total playing time: 28:07




Extended info
W. Gray Bass, Vocals
J. May Drums
A. Strobel Guitars, Vocals, French horn
J. Shaw Guitars


Technical info
(IMG:https://metalarea.org/images/spectrogram/2020_Feb/ba70f7ba918025107e502620d2c67b9e.png)
Input File: 02. Ancient Dominion.mp3
Channels : 2
Sample Rate : 44100
Precision : 16-bit
Duration : 00:05:53.12 = 15572548 samples = 26483.9 CDDA sectors
File Size : 14.8M
Bit Rate : 334k
Sample Encoding: MPEG audio (layer I, II or III)
Comments :
Title=Ancient Dominion
Artist=Sentient Divide
Album=Haunted by Cruelty
Tracknumber=2
Year=2020
Genre=Death Metal



Register


Go to the top of the page
  Insert nick Quick quote
+Quote Post
 
Start new topic
Replies (1 - 3)
post Apr 24 2020, 08:12:27
Post #2

Full-of-Hate
**************
Group: Металариец
Posts: 4,069
Releases: 0
From: Moscow
On Forums: 11 years 4 months
Thanks: 3990 time(s)
Russian Federation


Релиз прошел незамеченным, а работа оказалась достаточно примечательной.

Тягучий мрачный утробный DM с тревожной мелодикой и присутствием духовой секции: в записи использовалась валторна. Сразу скажу, что это не долбаный стерильный симфоник-что-нибудь-метал, совершенно нет. При этом духовой инструмент используется более чем интересно. В части треков дополнительное "низкочастотное гудение" звучит как достаточно тревожная подложка, создающая больший объем саунду, в части треков можно услышать более явное присутствие. Еще здесь используются два вокала - мужской и женский, оба, конечно, состязаются друг с другом в экстремальности, но друг другу не мешают.

Вообще, начал слушать просто как новинку 2020, но, услышав инородные веяния в саунде, полез разбираться в предмете. Альбом реально крутой. В нем есть дикий беспомпромиссный дух Death Metal, но с духовой ноткой креатива, выделяющей банду среди ровесников.

Очень хорошо, берем на карандаш.


Thanks:
(1) judaz,
Go to the top of the page
  Insert nick Quick quote
+Quote Post
post Apr 27 2020, 15:02:31
Post #3

кручу наждак
**************
Group: Металариец
Posts: 4,646
Releases: 103
From: Самара
On Forums: 10 years 6 months
Thanks: 3724 time(s)
Russian Federation


Тот случай, когда описание альбома интереснее самого альбома.
В этом утробном кашеобразном звуке вообще хрен чего разберешь, не то что валторну.
Go to the top of the page
  Insert nick Quick quote
+Quote Post
post Oct 16 2020, 18:36:07
Post #4

Group: Подсевший
Posts: 22
Releases: 0
On Forums: 11 years 3 months
Thanks: 16 time(s)
Unknown


FLAC
Register
Go to the top of the page
  Insert nick Quick quote
+Quote Post

Reply to this topicStart new topic
1 User(s) are reading this topic (1 Guests and 0 Anonymous Users)
0 Members:

 



- Lo-Fi Version Support form
Copyrights and abuse reports form
Time is now: 27th November 2020 - 18:01:37