Welcome Guest ( Log In | Register )

> 

Здесь релизы с живыми прямыми ссылками на lossless

> Neaera - Neaera (2020), Melodic Death Metal (D)
post Feb 22 2020, 08:07:38
Post #1

Маньяк
**********
Group: Металариец
Posts: 1,009
Releases: 182
On Forums: 11 years 4 months
Thanks: 3593 time(s)
Russian Federation


(IMG:http://metalarea.org/images/audiocovers/2020_Feb/acov_tid334078_thumb.jpg)

*Artist: Neaera
*Album: Neaera
*Year: 2020
*Genre: Melodic Death Metal
*Country: Germany (IMG:http://metalarea.org/forum/style_images/flags/Germany.png)
*Format: mp3@CBR320kbps
*Size: 101MB

Tracklist:
01. (Un)drowned 01:11
02. Catalyst 04:22
03. False Shepherds 04:21
04. Resurrection Of Wrath 04:11
05. Carriers 05:24
06. Rid The Earth Of The Human Virus 03:19
07. Sunset Of Mankind 04:45
08. Lifeless 03:40
09. Eruption In Reverse 04:17
10. Torchbearer 04:02
11. Deathless 04:23
******************************
Total playing time: 43:55



(IMG:http://metalarea.org/images/myspace.png)

Extended info






Lineup:
Benjamin Donath Bass (2004-2015, 2018-present)
Sebastian Heldt Drums (2004-2015, 2018-present)
Stefan Keller Guitars (2004-2015, 2018-present)
Tobias Buck Guitars (2004-2015, 2018-present)
Benjamin Hilleke Vocals (2004-2015, 2018-present)


Technical info
(IMG:http://metalarea.org/images/spectrogram/2020_Feb/c5ca3e437adb21762f8defe1f691490d.png)
Input File: 02-Catalyst.mp3
Channels : 2
Sample Rate : 44100
Precision : 16-bit
Duration : 00:04:23.05 = 11600505 samples = 19728.8 CDDA sectors
File Size : 10.5M
Bit Rate : 320k
Sample Encoding: MPEG audio (layer I, II or III)
Comments :
Title=Catalyst
Artist=Neaera
Album=Neaera
Tracknumber=2
Year=2020
Genre=Melodic Death Metal



Register


Go to the top of the page
  Insert nick Quick quote
+Quote Post
 
Start new topic
Replies (1 - 6)
post Feb 22 2020, 10:39:04
Post #2

Маньяк
**********
Group: Металариец
Posts: 1,291
Releases: 0
From: Russian Federation - St.Petersburg
On Forums: 11 years 3 weeks
Thanks: 319 time(s)
Russian Federation


Зачётный башкотряс! (IMG:style_emoticons/default/h27001.gif) (IMG:style_emoticons/default/banana.gif)
Go to the top of the page
  Insert nick Quick quote
+Quote Post
post Feb 22 2020, 20:53:06
Post #3

MDM-Thrash Metal
**************
Group: Металариец
Posts: 9,322
Releases: 783
From: Одесса
On Forums: 12 years 7 months
Thanks: 21206 time(s)
Ukraine


ЦИТАТА(Olrak @ Feb 22 2020, 13:39:04) *
Зачётный башкотряс! (IMG:style_emoticons/default/h27001.gif) (IMG:style_emoticons/default/banana.gif)

Ну, не знаю как на счет зачетного, но однообразное молотилово...что первый трек, что последний - одно и то же. Как по мне - так музыкальные идеи исчерпаны у данного кол-ва. 2007 - Armamentarium интересный альбом, с разноплановоми ходами и без долбежки. А потом, когда уже металкор прочно прописался в стилистике группы, интерес к команде совсем исчез.
Go to the top of the page
  Insert nick Quick quote
+Quote Post
post Feb 23 2020, 14:42:42
Post #4

Правь статус, ####!111
**************
Group: Металариец
Posts: 2,905
Releases: 8
From: Dnipro
On Forums: 11 years 8 months
Thanks: 922 time(s)
Ukraine


Никогда их не любил и не понимал.
Go to the top of the page
  Insert nick Quick quote
+Quote Post
post Feb 29 2020, 03:30:23
Post #5

Ъ
**************
Group: Металариец
Posts: 9,999
Releases: 9
On Forums: 11 years 2 months
Thanks: 1983 time(s)
Sweden


Пару раз прогнать норм, энергетика все таки какая никакая есть, а так да, однообразно и безыдейно до безобразия.
Go to the top of the page
  Insert nick Quick quote
+Quote Post
post Feb 29 2020, 12:08:10
Post #6

Маньяк
**********
Group: Металариец
Posts: 1,009
Releases: 182
On Forums: 11 years 4 months
Thanks: 3593 time(s)
Russian Federation


FLAC tracks
Register
Go to the top of the page
  Insert nick Quick quote
+Quote Post
post Mar 24 2020, 14:59:16
Post #7

Правь статус, ####!111
**************
Group: Металариец
Posts: 3,794
Releases: 11
From: Москва и МО
On Forums: 13 years 8 months
Thanks: 1035 time(s)
Russian Federation


Скачал, думая, очень качественный клон Heaven Shall Burn по звуку близкий к моему любимому Deaf to our prayers.
Оказалось, все так и есть, только без очень качественный. После пары прослушек выдыхается. Альбом служил заменителем, пока не вышел новый HSB, но он вышел и может теперь слушать неповторимый оригинал (IMG:style_emoticons/default/smile1.gif)
Go to the top of the page
  Insert nick Quick quote
+Quote Post

Reply to this topicStart new topic
1 User(s) are reading this topic (1 Guests and 0 Anonymous Users)
0 Members:

 



- Lo-Fi Version Support form
Copyrights and abuse reports form
Time is now: 29th March 2020 - 03:50:57