Welcome Guest ( Log In | Register )

> 

Здесь релизы с живыми прямыми ссылками на lossless

> Bowel Stew - Putridarium (2020), Brutal Death Metal (D)
post Feb 22 2020, 20:32:33
Post #1

Правь статус, ####!111
**************
Group: Металариец
Posts: 21,258
Releases: 14534
From: Г.Харьков
On Forums: 7 years 10 months
Thanks: 259273 time(s)
Unknown


(IMG:https://metalarea.org/images/audiocovers/2020_Feb/acov_tid334104_thumb.jpg)

*Artist: Bowel Stew
*Album: Putridarium
*Year: 2020
*Genre: Brutal Death Metal
*Country: Italy (IMG:https://metalarea.org/forum/style_images/flags/Italy.png)
*Format: mp3@CBR320kbps
*Size: 79MB

Tracklist:
01. Scalped Alive with a Bone Awl
02. Penis-Mortifying Cilice
03. Teratomorphic Fetal Encystment
04. Umbilical Cord Strangulation
05. Pile of Human Mummified Remains
06. Crepitant Skeletal Disarticulation
07. Putridarium: Ubi Pus, Ibi Evacua
08. Fecal Embalment of the Vaginal Cavity
09. Slowly We Rot (Obituary cover)
******************************
Total playing time: 32:56




Extended info
Riccardo Drums
Omar Guitars
Ambro Vocals
Vanni Bass


Technical info
(IMG:https://metalarea.org/images/spectrogram/2020_Feb/94fedb8bce58d6c07bb2ee7d798dfbfc.png)
Input File: 03. Teratomorphic Fetal Encystment.mp3
Channels : 2
Sample Rate : 44100
Precision : 16-bit
Duration : 00:03:29.88 = 9255796 samples = 15741.1 CDDA sectors
File Size : 8.77M
Bit Rate : 334k
Sample Encoding: MPEG audio (layer I, II or III)
Comments :
Title=Teratomorphic Fetal Encystment
Artist=Bowel Stew
Album=Putridarium
Tracknumber=3
Year=2020
Genre=Death/Goregrind



Register


Go to the top of the page
  Insert nick Quick quote
+Quote Post
 
Start new topic
Replies (1 - 3)
post Feb 24 2020, 14:48:11
Post #2

Group: Подсевший
Posts: 49
Releases: 0
On Forums: 13 years 5 months
Thanks: 6 time(s)
Russian Federation


Нелепое дерьмище!! Это надо было такую песню еще умудриться изгадить!! (slowly we rot)
Go to the top of the page
  Insert nick Quick quote
+Quote Post
post Mar 3 2020, 20:57:37
Post #3

Full-of-Hate
**************
Group: Металариец
Posts: 3,463
Releases: 0
From: Moscow
On Forums: 10 years 9 months
Thanks: 3158 time(s)
Russian Federation


ЦИТАТА(Camel @ Feb 24 2020, 16:48:11) *
Нелепое дерьмище!!


Это скорее комплимент!

На самом деле Brutal Death группа толком никогда не играла, если только на заре творчества двадцать лет назад были попытки изображать нечто брутальное. Но потом выяснилось, что это достаточно старательная музыка, а итальяхи те еще распиэтосамое. Поэтому позже все больше грайндовых делищ стали наваливать. Развивал скилл только барабанщик, остальные просто произвольно терзали инструменты и продолжают. Мне кажется, здесь в какой-то момент начинается что-то вроде слабенького LDOH переходящего в средненький Brodequin и обратно. Есть хорошие разгоны в совсем уж ультра мочилово, но какой-то точно апофеоза у этого буйства нет.

Но, может кому и понравится, лично я нахожу эту квакалку достаточно неоригинальной даже по меркам самих Bowel Stew. Хорошо, но раньше было лучше.
Go to the top of the page
  Insert nick Quick quote
+Quote Post
post Mar 8 2020, 12:58:30
Post #4


Group Icon
Group: S-moderation team
Posts: 14,859
Releases: 1440
From: Zagreb
On Forums: 9 years 1 month
Thanks: 65157 time(s)
Croatia


Register


Go to the top of the page
  Insert nick Quick quote
+Quote Post

Reply to this topicStart new topic
1 User(s) are reading this topic (1 Guests and 0 Anonymous Users)
0 Members:

 



- Lo-Fi Version Support form
Copyrights and abuse reports form
Time is now: 3rd April 2020 - 17:56:59