Welcome Guest ( Log In | Register )

> Necrobode - Sob O Feitiço Do Necrobode (2020), Black/Death Metal
post Feb 23 2020, 15:36:35
Post #1

Правь статус, ####!111
**************
Group: Металариец
Posts: 23,187
Releases: 16174
From: Г.Харьков
On Forums: 8 years 4 months
Thanks: 301248 time(s)
Unknown


(IMG:https://metalarea.org/images/audiocovers/2020_Feb/acov_tid334118_thumb.jpg)

*Artist: Necrobode
*Album: Sob O Feitiço Do Necrobode
*Year: 2020
*Genre: Black/Death Metal
*Country: Portugal (IMG:https://metalarea.org/forum/style_images/flags/Portugal.png)
*Format: mp3@VBR282kbps
*Size: 63MB

Tracklist:
1. Tumba Universal 04:20
2. Santo Santuário do Ódio 02:41
3. Satanás Governa 03:06
4. Algol 02:31
5. Culto da Intolerância 03:56
6. Penetração Diabólica 03:43
7. Possuido 01:55
8. Sangue da Virgem 03:06
9. Capela Heretica 02:19
10. Liturgica Profanação 02:44
******************************
Total playing time: 30:21



Technical info
(IMG:https://metalarea.org/images/spectrogram/2020_Feb/a11f94654ff61c206fcac0fe762edcd8.png)
Input File: 05. Culto da Intolerância.mp3
Channels : 2
Sample Rate : 44100
Precision : 16-bit
Duration : 00:03:56.28 = 10419816 samples = 17720.8 CDDA sectors
File Size : 8.73M
Bit Rate : 296k
Sample Encoding: MPEG audio (layer I, II or III)
Comments :
Title=Culto da Intolerância
Artist=Necrobode
Album=Sob o Feitiço do Necrobode
Tracknumber=5
Year=2020



Register


Go to the top of the page
  Insert nick Quick quote
+Quote Post
 
Start new topic
Replies (1 - 1)
post Sep 16 2020, 20:57:30
Post #2

Литр
*
Group: Подсевший
Posts: 69
Releases: 0
From: Autonomia Kaliska
On Forums: 12 years 9 months
Thanks: 2 time(s)
Poland


320, plz?
Go to the top of the page
  Insert nick Quick quote
+Quote Post

Reply to this topicStart new topic
2 User(s) are reading this topic (2 Guests and 0 Anonymous Users)
0 Members:

 



- Lo-Fi Version Support form
Copyrights and abuse reports form
Time is now: 23rd September 2020 - 03:33:39