Welcome Guest ( Log In | Register )

> И неформату есть предел.

Рэп/хип-хоп/шансон/поп удаляются. Для них есть свои порталы.

> The Young Gods - Data Mirage Tangram (2019), Industrial Rock
post Feb 23 2020, 21:25:58
Post #1

Три Литра
***
Group: Завсегдатай
Posts: 229
Releases: 8
From: Санкт-Петербург
On Forums: 14 years 2 weeks
Thanks: 792 time(s)
Russian Federation


(IMG:http://metalarea.org/images/audiocovers/2020_Feb/acov_tid334132_thumb.jpg)

*Artist: The Young Gods
*Album: Data Mirage Tangram
*Year: 2019
*Genre: Industrial Rock
*Country: Switzerland (IMG:http://metalarea.org/forum/style_images/flags/Switzerland.png)
*Format: mp3@CBR320kbps
*Size: 122MB

Tracklist:
01. Entre En Matière 07:14
02. Tear Up The Red Sky 07:28
03. Figure Sans Nom 06:10
04. Moon Above 06:02
05. All My Skin Standing 11:11
06. You Gave Me A Name 08:00
07. Everythem 07:33
******************************
Total playing time: 53:39



Technical info
(IMG:http://metalarea.org/images/spectrogram/2020_Feb/9080961378dc9005f47a44e699a8a107.png)
Input File: 02 - Tear Up The Red Sky.mp3
Channels : 2
Sample Rate : 44100
Precision : 16-bit
Duration : 00:07:28.21 = 19766061 samples = 33615.8 CDDA sectors
File Size : 18.0M
Bit Rate : 321k
Sample Encoding: MPEG audio (layer I, II or III)
Comments :
Title=Tear Up The Red Sky
Artist=The Young Gods
Album=Data Mirage Tangram
Tracknumber=02
Year=2019
Genre=Industrial Rock



Register


Go to the top of the page
  Insert nick Quick quote
+Quote Post
 
Start new topic
Replies (1 - 2)
post Feb 23 2020, 23:01:37
Post #2

Четыре Литра
****
Group: Металариец
Posts: 302
Releases: 0
On Forums: 11 years 6 days
Thanks: 90 time(s)
Russian Federation


можно другой обменник? пож!
Go to the top of the page
  Insert nick Quick quote
+Quote Post
post Feb 24 2020, 16:29:35
Post #3

Три Литра
***
Group: Завсегдатай
Posts: 229
Releases: 8
From: Санкт-Петербург
On Forums: 14 years 2 weeks
Thanks: 792 time(s)
Russian Federation


Mediafire


Thanks:
Go to the top of the page
  Insert nick Quick quote
+Quote Post

Reply to this topicStart new topic
1 User(s) are reading this topic (1 Guests and 0 Anonymous Users)
0 Members:

 



- Lo-Fi Version Support form
Copyrights and abuse reports form
Time is now: 4th June 2020 - 17:20:22