Welcome Guest ( Log In | Register )

> 

Здесь релизы с живыми прямыми ссылками на lossless

> Blood Flag Ritual - Ancient Proclamation Of Warfare (2019), Blackened Death/Thrash Metal
post Feb 25 2020, 15:06:35
Post #1

Правь статус, ####!111
**************
Group: Металариец
Posts: 21,167
Releases: 14450
From: Г.Харьков
On Forums: 7 years 10 months
Thanks: 257540 time(s)
Unknown


(IMG:https://metalarea.org/images/audiocovers/2020_Feb/acov_tid334173_thumb.jpg)

*Artist: Blood Flag Ritual
*Album: Ancient Proclamation Of Warfare
*Year: 2019
*Genre: Blackened Death/Thrash Metal
*Country: Mexico (IMG:https://metalarea.org/forum/style_images/flags/Mexico.png)
*Format: mp3@CBR320kbps
*Size: 102MB

Tracklist:
1. Bullet Storm 07:12
2. Demonic Assault 04:20
3. T.C.D.D 03:52
4. Howling Death 04:00
5. In Eternity Desolation 05:12
6. Blood Flag Ritual 05:47
7. Incineration of the Flesh 04:01
8. Followers of Lies 04:08
9. Infernal Commando 03:53
******************************
Total playing time: 42:25




Extended info
FLAC Rip
Adrián Moreno Vocals, Guitars (2007-present)
See also: Ash Nazg Búrz
Octavio Monroy Drums (2008-present)
Noé Flores Bass (2015-present)


Technical info
(IMG:https://metalarea.org/images/spectrogram/2020_Feb/8d78b50e46dceecc82d3292f8797d8e0.png)
Input File: 05. In Eternity Desolation.mp3
Channels : 2
Sample Rate : 44100
Precision : 16-bit
Duration : 00:05:12.00 = 13759200 samples = 23400 CDDA sectors
File Size : 13.1M
Bit Rate : 336k
Sample Encoding: MPEG audio (layer I, II or III)
Comments :
Title=In Eternity Desolation
Artist=Blood Flag Ritual
Album=Ancient Proclamation of Warfare (320)
Tracknumber=05
Year=2019
Genre=Metal



Register


Go to the top of the page
  Insert nick Quick quote
+Quote Post
 
Start new topic
Replies (1 - 2)
post Feb 26 2020, 07:45:08
Post #2

hearer & reader
**************
Group: Металариец
Posts: 8,503
Releases: 130
From: Moscow
On Forums: 12 years 6 months
Thanks: 8337 time(s)
Russian Federation


Собрали в кучку разные записи, а звук-то тоже разный...
Первые пять треков - EP War Rituals, там всё звонко, как в 128Kbps, они тише, и сонограмма стрёмная.
Go to the top of the page
  Insert nick Quick quote
+Quote Post
post Feb 26 2020, 14:12:26
Post #3

Правь статус, ####!111
**************
Group: Металариец
Posts: 21,167
Releases: 14450
From: Г.Харьков
On Forums: 7 years 10 months
Thanks: 257540 time(s)
Unknown


FLAC (Tracks) 353 mb
Register


Go to the top of the page
  Insert nick Quick quote
+Quote Post

Reply to this topicStart new topic
1 User(s) are reading this topic (1 Guests and 0 Anonymous Users)
0 Members:

 



- Lo-Fi Version Support form
Copyrights and abuse reports form
Time is now: 29th March 2020 - 04:53:32