Welcome Guest ( Log In | Register )

> 

Здесь релизы с живыми прямыми ссылками на lossless

> XIV Dark Centuries - Waldvolk (2020), Pagan Metal (D)
post Feb 27 2020, 11:53:57
Post #1

Serial Uploader
Group Icon
Group: V.I.P
Posts: 37,112
Releases: 35296
From: Lithuania
On Forums: 11 years 9 months
Thanks: 418014 time(s)
Lithuania


(IMG:http://metalarea.org/images/audiocovers/2020_Feb/acov_tid334217_thumb.jpg)

*Artist: XIV Dark Centuries
*Album: Waldvolk
*Year: 2020
*Genre: Pagan Metal
*Country: Germany (IMG:http://metalarea.org/forum/style_images/flags/Germany.png)
*Format: mp3@CBR320kbps
*Size: 104MB

Tracklist:
01. Heimwärts (Intro) 01:25
02. Skogafulka 03:22
03. Svava 04:53
04. Firratan 05:13
05. Atme den Wald 03:56
06. Ich bin das Feuer 05:30
07. Sunna 05:58
08. Julenzeit 04:33
09. Runibergun 03:54
10. Bragarful 03:36
11. Nott (Outro) 02:34
******************************
Total playing time: 44:54



(IMG:http://metalarea.org/images/youtube.png)

Technical info
(IMG:http://metalarea.org/images/spectrogram/2020_Feb/fe30bf5634d0e28ce675a04459b133c0.png)
Input File: 02. Skogafulka.mp3
Channels : 2
Sample Rate : 44100
Precision : 16-bit
Duration : 00:03:22.33 = 8922841 samples = 15174.9 CDDA sectors
File Size : 8.22M
Bit Rate : 325k
Sample Encoding: MPEG audio (layer I, II or III)
Comments :
Title=Skogafulka
Artist=XIV Dark Centuries
Album=Waldvolk
Tracknumber=2
Year=2020-02-28
Genre=Pagan Metal
Discnumber=1



Register


Go to the top of the page
  Insert nick Quick quote
+Quote Post
 
Start new topic
Replies (1 - 8)
post Feb 27 2020, 18:40:46
Post #2

Правь статус, ####!111
**************
Group: Металариец
Posts: 45,596
Releases: 703
On Forums: 10 years 9 months
Thanks: 37525 time(s)
Russian Federation


@320

Register


Register


Go to the top of the page
  Insert nick Quick quote
+Quote Post
post Feb 28 2020, 02:13:38
Post #3

Шесть Литров
******
Group: Металариец
Posts: 555
Releases: 26
On Forums: 10 years 10 months
Thanks: 553 time(s)
Chile


Thanks (IMG:style_emoticons/default/dwarf-1.gif)
Go to the top of the page
  Insert nick Quick quote
+Quote Post
post Feb 29 2020, 16:59:33
Post #4

Правь статус, ####!111
**************
Group: Металариец
Posts: 2,905
Releases: 8
From: Dnipro
On Forums: 11 years 8 months
Thanks: 922 time(s)
Ukraine


Отличные немцы, помню на лицензии выходил их альбом 2003 года, очень зачетный был.
Конкуренты по сцене для Эквилибриума и Black Messiah
Go to the top of the page
  Insert nick Quick quote
+Quote Post
post Mar 2 2020, 09:45:46
Post #5

Литр
*
Group: Подсевший
Posts: 88
Releases: 0
On Forums: 1 month 1 week
Thanks: 55 time(s)
Unknown


Помнится в начале 2000 эта банда всегда была на задворках сцены и в тени более именитых коллег по языческой теме. Впрочем материал они писали очень даже неплохой. Скорость и мелодичность стояли у них во главе угла. Здесь все тоже самое - быстро, мелодично и на немецком. Больше плюсов нет
Go to the top of the page
  Insert nick Quick quote
+Quote Post
post Mar 9 2020, 11:29:22
Post #6


Group Icon
Group: S-moderation team
Posts: 14,755
Releases: 1440
From: Zagreb
On Forums: 9 years 1 month
Thanks: 64651 time(s)
Croatia


Register


Go to the top of the page
  Insert nick Quick quote
+Quote Post
post Mar 12 2020, 11:33:29
Post #7

Necromancer
Group Icon
Group: Curation team
Posts: 11,012
Releases: 271
From: Зеленоград
On Forums: 13 years 5 months
Thanks: 8837 time(s)
Russian Federation


Долгохданный и хорошмй альбом. (IMG:style_emoticons/default/dwarf-1.gif) (IMG:style_emoticons/default/dwarf-1.gif)
Go to the top of the page
  Insert nick Quick quote
+Quote Post
post Mar 12 2020, 20:11:18
Post #8

на аватаре не я
**************
Group: Металариец
Posts: 4,888
Releases: 7
From: "Самопровозглашенная ДНР" (с)
On Forums: 10 years 8 months
Thanks: 2397 time(s)
Russian Federation


ЦИТАТА(Fess @ Mar 12 2020, 13:33:29) *
Долгохданный и хорошмй альбом. (IMG:style_emoticons/default/dwarf-1.gif) (IMG:style_emoticons/default/dwarf-1.gif)

Грамотный, надеюсь? (IMG:style_emoticons/default/15.gif)


Thanks:
(1) Deze,
Go to the top of the page
  Insert nick Quick quote
+Quote Post
post Mar 12 2020, 23:48:33
Post #9

Правь статус (ну неее... лень-матушка)
**************
Group: Металариец
Posts: 12,359
Releases: 0
From: Киев
On Forums: 12 years 2 months
Thanks: 7299 time(s)
Unknown


(IMG:style_emoticons/default/15.gif)
Go to the top of the page
  Insert nick Quick quote
+Quote Post

Reply to this topicStart new topic
1 User(s) are reading this topic (1 Guests and 0 Anonymous Users)
0 Members:

 



- Lo-Fi Version Support form
Copyrights and abuse reports form
Time is now: 29th March 2020 - 03:39:24