Welcome Guest ( Log In | Register )

> 

Здесь релизы с живыми прямыми ссылками на lossless

> Ars Veneficium - Usurpation Of The Seven (2020), Black Metal (D5)
post Feb 27 2020, 13:04:40
Post #1

Serial Uploader
Group Icon
Group: V.I.P
Posts: 37,112
Releases: 35296
From: Lithuania
On Forums: 11 years 9 months
Thanks: 418014 time(s)
Lithuania


(IMG:http://metalarea.org/images/audiocovers/2020_Feb/acov_tid334228_thumb.jpg)

*Artist: Ars Veneficium
*Album: Usurpation Of The Seven
*Year: 2020
*Genre: Black Metal
*Country: Belgium (IMG:http://metalarea.org/forum/style_images/flags/Belgium.png)
*Format: mp3@CBR320kbps
*Size: 87MB

Tracklist:
01. Hymns of Chaos 01:10
02. Wrath of Life 04:12
03. Devour the Light 03:37
04. In Sin, Bred by Madness 04:19
05. De Luiaard Heerst 05:39
06. In the Fires of Eternity 05:57
07. 7 02:57 instrumental
08. Under the Wings of Beautiful Darkness 04:44
09. The Flame of Endless Yearning 05:27
******************************
Total playing time: 38:02


Preview 2
(IMG:http://metalarea.org/images/youtube.png)

Technical info
(IMG:http://metalarea.org/images/spectrogram/2020_Feb/e2b984295b9141c0d71c9a53a59ff174.png)
Input File: 02 - Wrath Of Life.mp3
Channels : 2
Sample Rate : 44100
Precision : 16-bit
Duration : 00:04:12.52 = 11135956 samples = 18938.7 CDDA sectors
File Size : 10.2M
Bit Rate : 323k
Sample Encoding: MPEG audio (layer I, II or III)
Comments :
Title=Wrath Of Life
Artist=Ars Veneficium
Album=Usurpation Of The Seven
Tracknumber=2
Year=2020
Genre=Metal
Discnumber=1



Register


Go to the top of the page
  Insert nick Quick quote
+Quote Post
 
Start new topic
Replies (1 - 3)
post Feb 29 2020, 17:07:46
Post #2

Правь статус, ####!111
**************
Group: Металариец
Posts: 2,905
Releases: 8
From: Dnipro
On Forums: 11 years 8 months
Thanks: 922 time(s)
Ukraine


Это интересно, послушаем, 2016 у них был просто великолепным (IMG:style_emoticons/default/20.gif)
Go to the top of the page
  Insert nick Quick quote
+Quote Post
post Mar 2 2020, 15:59:02
Post #3

Правь статус, ####!111
**************
Group: Металариец
Posts: 2,905
Releases: 8
From: Dnipro
On Forums: 11 years 8 months
Thanks: 922 time(s)
Ukraine


Супер альбом. настоящий mbm. Эх, лося бы (IMG:style_emoticons/default/6.gif)
Go to the top of the page
  Insert nick Quick quote
+Quote Post
post Mar 21 2020, 16:23:12
Post #4


Group Icon
Group: S-moderation team
Posts: 14,755
Releases: 1440
From: Zagreb
On Forums: 9 years 1 month
Thanks: 64650 time(s)
Croatia


Register


Thanks:
Go to the top of the page
  Insert nick Quick quote
+Quote Post

Reply to this topicStart new topic
1 User(s) are reading this topic (1 Guests and 0 Anonymous Users)
0 Members:

 



- Lo-Fi Version Support form
Copyrights and abuse reports form
Time is now: 29th March 2020 - 03:03:14