Welcome Guest ( Log In | Register )

> 

Здесь релизы с живыми прямыми ссылками на lossless

> Drown - Subaqueous (2020), Funeral Doom Metal
post Feb 27 2020, 14:03:43
Post #1

Serial Uploader
Group Icon
Group: V.I.P
Posts: 37,112
Releases: 35296
From: Lithuania
On Forums: 11 years 9 months
Thanks: 418014 time(s)
Lithuania


(IMG:http://metalarea.org/images/audiocovers/2020_Feb/acov_tid334236_thumb.jpg)

*Artist: Drown
*Album: Subaqueous
*Year: 2020
*Genre: Funeral Doom Metal
*Country: United States (IMG:http://metalarea.org/forum/style_images/flags/United%20States.png)
*Format: mp3@CBR320kbps
*Size: 90MB

Tracklist:
01. Drowned VI: Mother Cetacean
02. Drowned VII: Father Subaqueous
******************************
Total playing time: 39:06



(IMG:http://metalarea.org/images/youtube.png)

Technical info
(IMG:http://metalarea.org/images/spectrogram/2020_Feb/10cab8f3a5b2fca3c5bb97a465b23168.png)
Input File: 02. Drowned VII- Father Subaqueous.mp3
Channels : 2
Sample Rate : 44100
Precision : 16-bit
Duration : 00:21:04.24 = 55753116 samples = 94818.2 CDDA sectors
File Size : 50.6M
Bit Rate : 320k
Sample Encoding: MPEG audio (layer I, II or III)
Comments :
Title=Drowned VII: Father Subaqueous
Artist=Drown
Album=Subaqueous
Tracknumber=2/2
Year=2020
Genre=Rock
Discnumber=1/1



Register


Go to the top of the page
  Insert nick Quick quote
+Quote Post
 
Start new topic
Replies (1 - 4)
post Feb 28 2020, 16:45:49
Post #2

Group: Подсевший
Posts: 41
Releases: 0
On Forums: 2 years 1 month
Thanks: 17 time(s)
Belarus


Очередная посредственная работа.


Thanks:
Go to the top of the page
  Insert nick Quick quote
+Quote Post
post Feb 29 2020, 17:10:58
Post #3

Правь статус, ####!111
**************
Group: Металариец
Posts: 2,905
Releases: 8
From: Dnipro
On Forums: 11 years 8 months
Thanks: 922 time(s)
Ukraine


Очень достойный фюнерал. (IMG:style_emoticons/default/true_black.gif)
Go to the top of the page
  Insert nick Quick quote
+Quote Post
post Mar 8 2020, 16:40:42
Post #4


Group Icon
Group: S-moderation team
Posts: 14,755
Releases: 1440
From: Zagreb
On Forums: 9 years 1 month
Thanks: 64650 time(s)
Croatia


Register


Go to the top of the page
  Insert nick Quick quote
+Quote Post
post Mar 14 2020, 04:55:57
Post #5

Grind the Human Scum
*********
Group: Металариец
Posts: 992
Releases: 18
On Forums: 13 years 2 months
Thanks: 932 time(s)
Russian Federation


годная похоронщина (IMG:style_emoticons/default/hung.gif)
Go to the top of the page
  Insert nick Quick quote
+Quote Post

Reply to this topicStart new topic
1 User(s) are reading this topic (1 Guests and 0 Anonymous Users)
0 Members:

 



- Lo-Fi Version Support form
Copyrights and abuse reports form
Time is now: 29th March 2020 - 03:18:03