Welcome Guest ( Log In | Register )

> 

Здесь релизы с живыми прямыми ссылками на lossless

> Infirmum - Walls Of Sorrow (2020), Doom/Death Metal
post Feb 27 2020, 14:25:58
Post #1

Правь статус, ####!111
**************
Group: Металариец
Posts: 21,167
Releases: 14450
From: Г.Харьков
On Forums: 7 years 10 months
Thanks: 257536 time(s)
Unknown


(IMG:https://metalarea.org/images/audiocovers/2020_Feb/acov_tid334241_thumb.jpg)

*Artist: Infirmum
*Album: Walls Of Sorrow
*Year: 2020
*Genre: Doom/Death Metal
*Country: Finland (IMG:https://metalarea.org/forum/style_images/flags/Finland.png)
*Format: mp3@CBR320kbps
*Size: 111MB

Tracklist:
1. To Darkness
2. Cause of Sorrow
3. Shadows of the Past
4. Silence
5. Doomed
6. Wake Me
7. Autumn Breeze
8. Sail Away
9. Fearless
10. Trust
******************************
Total playing time: 48:17




Extended info
XY Live - Bass (2019-present)
Timo Solonen - Guitars, Vocals (2019-present) (Kuolonkoura)


Technical info
(IMG:https://metalarea.org/images/spectrogram/2020_Feb/4b91745a89701dbe5c04b34de03391b2.png)
Input File: 04 - Silence.mp3
Channels : 2
Sample Rate : 44100
Precision : 16-bit
Duration : 00:05:14.95 = 13889383 samples = 23621.4 CDDA sectors
File Size : 12.6M
Bit Rate : 321k
Sample Encoding: MPEG audio (layer I, II or III)
Comments :
Title=Silence
Artist=Infirmum
Album=Walls of Sorrow
Tracknumber=4
Year=2020
Genre=Metal
Discnumber=1



Register


Go to the top of the page
  Insert nick Quick quote
+Quote Post
 
Start new topic
Replies (1 - 3)
post Feb 28 2020, 00:02:21
Post #2

Group: Дух
Posts: 5
Releases: 0
On Forums: 9 years 1 month
Thanks: 2 time(s)
Unknown


https://www.youtube.com/watch?v=dJF2BSxOeVo


Go to the top of the page
  Insert nick Quick quote
+Quote Post
post Feb 28 2020, 00:09:25
Post #3

Правь статус, ####!111
**************
Group: Металариец
Posts: 21,167
Releases: 14450
From: Г.Харьков
On Forums: 7 years 10 months
Thanks: 257536 time(s)
Unknown


Cloud Mail 320
Register


Go to the top of the page
  Insert nick Quick quote
+Quote Post
post Mar 8 2020, 19:43:32
Post #4


Group Icon
Group: S-moderation team
Posts: 14,755
Releases: 1440
From: Zagreb
On Forums: 9 years 1 month
Thanks: 64653 time(s)
Croatia


Register


Thanks:
Go to the top of the page
  Insert nick Quick quote
+Quote Post

Reply to this topicStart new topic
2 User(s) are reading this topic (2 Guests and 0 Anonymous Users)
0 Members:

 



- Lo-Fi Version Support form
Copyrights and abuse reports form
Time is now: 29th March 2020 - 04:03:50