Welcome Guest ( Log In | Register )

> 

Здесь релизы с живыми прямыми ссылками на lossless

> Abhomine - Proselyte Parasite Plague (2020), Black/Death Metal
post Feb 27 2020, 15:25:32
Post #1

Serial Uploader
Group Icon
Group: V.I.P
Posts: 37,112
Releases: 35296
From: Lithuania
On Forums: 11 years 9 months
Thanks: 418014 time(s)
Lithuania


(IMG:http://metalarea.org/images/audiocovers/2020_Feb/acov_tid334249_thumb.jpg)

*Artist: Abhomine
*Album: Proselyte Parasite Plague
*Year: 2020
*Genre: Black/Death Metal
*Country: United States (IMG:http://metalarea.org/forum/style_images/flags/United%20States.png)
*Format: mp3@CBR320kbps
*Size: 58MB

Tracklist:
01. Heresy Pulpit 04:32
02. Infidel and Unclean 04:02
03. Gogamgoz 03:00
04. Blacklist 05:05
05. Saracen 03:27
06. Progeny Devoid 03:28
******************************
Total playing time: 23:34




Technical info
(IMG:http://metalarea.org/images/spectrogram/2020_Feb/96388dba79b2d10ba402072887f20d8d.png)
Input File: 02. Infidel and Unclean.mp3
Channels : 2
Sample Rate : 44100
Precision : 16-bit
Duration : 00:04:01.86 = 10665938 samples = 18139.4 CDDA sectors
File Size : 10.0M
Bit Rate : 332k
Sample Encoding: MPEG audio (layer I, II or III)
Comments :
Title=Infidel and Unclean
Artist=Abhomine
Album=Proselyte Parasite Plague
Tracknumber=2/6
Year=2020
Discnumber=1/1



Register


Go to the top of the page
  Insert nick Quick quote
+Quote Post
 
Start new topic
Replies (1 - 4)
post Feb 27 2020, 20:05:05
Post #2

De Mysteriis Dom Sathanas
**************
Group: Металариец
Posts: 3,848
Releases: 63
From: Doom
On Forums: 11 years 8 months
Thanks: 3255 time(s)
Russian Federation


Грязный звук, схожесть с Havohej и Order From Chaos, что неудивительно)
Go to the top of the page
  Insert nick Quick quote
+Quote Post
post Feb 28 2020, 18:57:27
Post #3

Only Death is Real
********
Group: Металариец
Posts: 803
Releases: 0
From: R'lyeh
On Forums: 3 years 3 months
Thanks: 709 time(s)
Poland


QUOTE(RUSP73 @ Feb 27 2020, 20:05:05) *
Грязный звук, схожесть с Havohej и Order From Chaos, что неудивительно)


More to Angelcorpse and Order From Chaos, but Abhomine is a band of Pete Helmkamp, so these comparisons are pointless. It's great Black/Death Metal as always. The Black Lourde of Crucifixion also did a great job as a drummer and backing vocals. Finally something excellent in this year. (IMG:style_emoticons/default/9.gif)


Thanks:
Go to the top of the page
  Insert nick Quick quote
+Quote Post
post Feb 29 2020, 19:59:43
Post #4

at the top
**************
Group: Металариец
Posts: 4,664
Releases: 0
From: Одесса
On Forums: 12 years 3 weeks
Thanks: 3205 time(s)
Ukraine


Very good material. (IMG:style_emoticons/default/9.gif)


Go to the top of the page
  Insert nick Quick quote
+Quote Post
post Mar 9 2020, 13:17:20
Post #5

Правь статус, ####!111
**************
Group: Металариец
Posts: 2,876
Releases: 36
On Forums: 2 years 4 months
Thanks: 6824 time(s)
Unknown


Register


Go to the top of the page
  Insert nick Quick quote
+Quote Post

Reply to this topicStart new topic
1 User(s) are reading this topic (1 Guests and 0 Anonymous Users)
0 Members:

 



- Lo-Fi Version Support form
Copyrights and abuse reports form
Time is now: 29th March 2020 - 04:58:00