Welcome Guest ( Log In | Register )

> 

Здесь релизы с живыми прямыми ссылками на lossless

> Volcandra - Into The Azure (2020), Melodic Black Metal
post Feb 28 2020, 01:06:31
Post #1

Правь статус, ####!111
**************
Group: Металариец
Posts: 21,258
Releases: 14534
From: Г.Харьков
On Forums: 7 years 10 months
Thanks: 259284 time(s)
Unknown


(IMG:https://metalarea.org/images/audiocovers/2020_Feb/acov_tid334270_thumb.jpg)

*Artist: Volcandra
*Album: Into The Azure
*Year: 2020
*Genre: Melodic Black Metal
*Country: United States (IMG:https://metalarea.org/forum/style_images/flags/United%20States.png)
*Format: mp3@CBR320kbps
*Size: 91MB

Tracklist:
01. Betruger
02. Plains of Despair
03. Into the Azure
04. Veracity
05. Fringe of the Earth
06. The Weight of Darkness
07. The Burning Mountain
******************************
Total playing time: 39:34




Extended info
Dave Palenske - Vocals
River Jordan - Guitar
Jamie Demar - Guitar
Dyer Keathley - Bass
Mike Hargrave - Drums



Technical info
(IMG:https://metalarea.org/images/spectrogram/2020_Feb/11b757a9d37159f92222a73052acbc83.png)
Input File: 04 - Veracity.mp3
Channels : 2
Sample Rate : 44100
Precision : 16-bit
Duration : 00:06:22.90 = 16885934 samples = 28717.6 CDDA sectors
File Size : 15.4M
Bit Rate : 322k
Sample Encoding: MPEG audio (layer I, II or III)
Comments :
Title=Veracity
Artist=Volcandra
Album=Into the Azure
Tracknumber=4
Year=2020-02-28
Genre=Metal
Discnumber=1



Register


Go to the top of the page
  Insert nick Quick quote
+Quote Post
 
Start new topic
Replies (1 - 4)
post Feb 29 2020, 17:23:59
Post #2

Правь статус, ####!111
**************
Group: Металариец
Posts: 2,908
Releases: 8
From: Dnipro
On Forums: 11 years 8 months
Thanks: 923 time(s)
Ukraine


Отличный подгон, лося бы (IMG:style_emoticons/default/13.gif)
Go to the top of the page
  Insert nick Quick quote
+Quote Post
post Feb 29 2020, 20:28:04
Post #3

Правь статус, ####!111
**************
Group: Металариец
Posts: 21,258
Releases: 14534
From: Г.Харьков
On Forums: 7 years 10 months
Thanks: 259284 time(s)
Unknown


ЦИТАТА(isvili @ 29th February 2020 - 18:23:59) *
лося бы

FLAC (Tracks) 286mb
Register


Thanks:
(1) isvili,
Go to the top of the page
  Insert nick Quick quote
+Quote Post
post Mar 1 2020, 14:38:08
Post #4

Ъ
**************
Group: Металариец
Posts: 10,014
Releases: 9
On Forums: 11 years 2 months
Thanks: 1986 time(s)
Sweden


Неплохой альбомчик, ничего нового, но все по канонам, на пару дней в плеер в самый раз. Единственно закрывашку сразу удалил, самый слабый трек.
Go to the top of the page
  Insert nick Quick quote
+Quote Post
post Mar 1 2020, 22:25:36
Post #5

Семь Литров
*******
Group: Металариец
Posts: 748
Releases: 0
From: South Of Heaven
On Forums: 12 years 8 months
Thanks: 349 time(s)
Ukraine


Очень приятный альбом, зашёл ! (IMG:style_emoticons/default/true_black.gif)
Особенно понравился 6-й трек, " The Weight of Darkness" .
Релизёру вери сенкс! (IMG:style_emoticons/default/9.gif) (IMG:style_emoticons/default/9.gif)
Go to the top of the page
  Insert nick Quick quote
+Quote Post

Reply to this topicStart new topic
1 User(s) are reading this topic (1 Guests and 0 Anonymous Users)
0 Members:

 



- Lo-Fi Version Support form
Copyrights and abuse reports form
Time is now: 3rd April 2020 - 18:28:24