Welcome Guest ( Log In | Register )

> 

Здесь релизы с живыми прямыми ссылками на lossless

> Caverne - Omphalos (2020), Black Metal
post Feb 28 2020, 01:31:42
Post #1

Правь статус, ####!111
**************
Group: Металариец
Posts: 21,257
Releases: 14534
From: Г.Харьков
On Forums: 7 years 10 months
Thanks: 259262 time(s)
Unknown


(IMG:https://metalarea.org/images/audiocovers/2020_Feb/acov_tid334271_thumb.jpg)

*Artist: Caverne
*Album: Omphalos
*Year: 2020
*Genre: Black Metal
*Country: France (IMG:https://metalarea.org/forum/style_images/flags/France.png)
*Format: mp3@CBR320kbps
*Size: 79MB

Tracklist:
01. Tambours de Pierre
02. La Forge de Pyrène
03. Untitled
04. La Mue du Serpent
******************************
Total playing time: 34:52

Technical info
(IMG:https://metalarea.org/images/spectrogram/2020_Feb/203bc692a5021607c8d25d1d5213bfeb.png)
Input File: 02. La Forge de Pyrène.mp3
Channels : 2
Sample Rate : 44100
Precision : 16-bit
Duration : 00:09:20.54 = 24719946 samples = 42040.7 CDDA sectors
File Size : 22.4M
Bit Rate : 320k
Sample Encoding: MPEG audio (layer I, II or III)
Comments :
Title=La Forge de Pyrène
Artist=Caverne
Album=Omphalos
Tracknumber=2
Year=2020
Genre=Black Metal



Register


Go to the top of the page
  Insert nick Quick quote
+Quote Post
 
Start new topic
Replies (1 - 5)
post Feb 28 2020, 12:48:33
Post #2

Мегаманьяк
***********
Group: Металариец
Posts: 1,942
Releases: 1536
From: Praha
On Forums: 5 years 11 months
Thanks: 38670 time(s)
Czech Republic


Register


Go to the top of the page
  Insert nick Quick quote
+Quote Post
post Feb 29 2020, 12:28:51
Post #3

De Mysteriis Dom Sathanas
**************
Group: Металариец
Posts: 3,865
Releases: 63
From: Doom
On Forums: 11 years 8 months
Thanks: 3270 time(s)
Russian Federation


Неплохо так, предыдущие не помню, но этот вполне себе
Go to the top of the page
  Insert nick Quick quote
+Quote Post
post Feb 29 2020, 13:00:21
Post #4

Шесть Литров
******
Group: Металариец
Posts: 517
Releases: 4
From: Москва
On Forums: 11 years 2 months
Thanks: 738 time(s)
Russian Federation


Проект играл добротный БМ, а на новом альбоме они превратились в каких-то французских LIK и Lönndom, чем автор просто слил в унитаз всю свою уникальность. Новый Некрополь уже не жду, видимо там тоже будет подражание, чует моё сердце.


Go to the top of the page
  Insert nick Quick quote
+Quote Post
post Mar 2 2020, 10:01:12
Post #5

Два Литра
**
Group: Завсегдатай
Posts: 103
Releases: 0
On Forums: 1 month 1 week
Thanks: 61 time(s)
Unknown


Достаточно меланхоличный альбом по общей атмосфере и восприятию. И подобный эффект это заслуга большого количества чистоголосых распевов. Предыдущий был более традиционным в понимании Блэк Метала. Здесь же у француза появилось желание поэкспериментировать не влезая в дебри техничности и это получилось вполне успешно.
Go to the top of the page
  Insert nick Quick quote
+Quote Post
post Mar 2 2020, 21:00:00
Post #6

алкодзэн, шапка из фольги и пропитая троица
**************
Group: Металариец
Posts: 3,554
Releases: 0
On Forums: 4 years 2 months
Thanks: 2226 time(s)
Unknown


ЦИТАТА(Vakhanal @ 29th February 2020 - 17:00:21) *
LIK и Lönndom

отличные проекты, здесь больше приходит на ум именно унылое творение под названием Saiva.
что последняя компиляшка что сабж, ничего запоминающегося.
не очень вышел експеримент, расстроен.
Go to the top of the page
  Insert nick Quick quote
+Quote Post

Reply to this topicStart new topic
1 User(s) are reading this topic (1 Guests and 0 Anonymous Users)
0 Members:

 



- Lo-Fi Version Support form
Copyrights and abuse reports form
Time is now: 3rd April 2020 - 17:14:12