Welcome Guest ( Log In | Register )

> 

Здесь релизы с живыми прямыми ссылками на lossless

> Wound Collector - Depravity (2020), Progressive Death Metal
post Feb 29 2020, 15:27:10
Post #1

Правь статус, ####!111
**************
Group: Металариец
Posts: 21,167
Releases: 14450
From: Г.Харьков
On Forums: 7 years 10 months
Thanks: 257540 time(s)
Unknown


(IMG:https://metalarea.org/images/audiocovers/2020_Feb/acov_tid334335_thumb.jpg)

*Artist: Wound Collector
*Album: Depravity
*Year: 2020
*Genre: Progressive Death Metal
*Country: Belgium (IMG:https://metalarea.org/forum/style_images/flags/Belgium.png)
*Format: mp3@CBR320kbps
*Size: 88MB

Tracklist:
1. Death by Guillotine
2. War and Slaughter
3. No God Without Terror
4. Seduced Into Depravity
5. Inherit the Crown
6. In Flanders Fields
7. Execution in Chaos
8. Royalty Achieved by War
9. The Merovingian Defeat
******************************
Total playing time: 37:41




Extended info
Kurt Hermans Bass, Vocals (2016-present)
See also: Off the Cross, ex-Angeli di Pietra, ex-Herfst
Guy Van Campenhout Guitars, Vocals (2016-present)
See also: Drunar, Xiphactinus, ex-Everglow, ex-Poseydon, ex-Angeli di Pietra, ex-Herfst (live)
Peter Verdonck Saxophone, Vocals (2016-present)
See also: ex-Butchered, ex-Wretched Vixen, ex-Distraught


Technical info
(IMG:https://metalarea.org/images/spectrogram/2020_Feb/6b77b47d54f424f938fb75cf73ce9764.png)
Input File: 03 - No God Without Terror.mp3
Channels : 2
Sample Rate : 44100
Precision : 16-bit
Duration : 00:05:31.78 = 14631322 samples = 24883.2 CDDA sectors
File Size : 13.5M
Bit Rate : 325k
Sample Encoding: MPEG audio (layer I, II or III)
Comments :
Title=No God Without Terror
Artist=Wound Collector
Album=Depravity
Tracknumber=3
Year=2020



Register


Go to the top of the page
  Insert nick Quick quote
+Quote Post
 
Start new topic
Replies (1 - 3)
post Feb 29 2020, 17:17:03
Post #2

Правь статус, ####!111
**************
Group: Металариец
Posts: 21,167
Releases: 14450
From: Г.Харьков
On Forums: 7 years 10 months
Thanks: 257540 time(s)
Unknown


Cloud Mail 320
Register


Go to the top of the page
  Insert nick Quick quote
+Quote Post
post Mar 3 2020, 09:13:42
Post #3

Литр
*
Group: Подсевший
Posts: 86
Releases: 0
On Forums: 2 years 11 months
Thanks: 27 time(s)
Russian Federation


Отличный прог-дэт с саксофоном
Go to the top of the page
  Insert nick Quick quote
+Quote Post
post Mar 9 2020, 11:29:44
Post #4


Group Icon
Group: S-moderation team
Posts: 14,755
Releases: 1440
From: Zagreb
On Forums: 9 years 1 month
Thanks: 64653 time(s)
Croatia


Register


Thanks:
Go to the top of the page
  Insert nick Quick quote
+Quote Post

Reply to this topicStart new topic
1 User(s) are reading this topic (1 Guests and 0 Anonymous Users)
0 Members:

 



- Lo-Fi Version Support form
Copyrights and abuse reports form
Time is now: 29th March 2020 - 04:42:19