Welcome Guest ( Log In | Register )

> 

Здесь релизы с живыми прямыми ссылками на lossless

> Necrofagore - Into The Gloom Of The Buried Valley (2020), Old School Death Metal
post Feb 29 2020, 19:49:11
Post #1

Правь статус, ####!111
**************
Group: Металариец
Posts: 21,167
Releases: 14450
From: Г.Харьков
On Forums: 7 years 10 months
Thanks: 257540 time(s)
Unknown


(IMG:https://metalarea.org/images/audiocovers/2020_Feb/acov_tid334469_thumb.jpg)

*Artist: Necrofagore
*Album: Into The Gloom Of The Buried Valley
*Year: 2020
*Genre: Old School Death Metal
*Country: Peru (IMG:https://metalarea.org/forum/style_images/flags/Peru.png)
*Format: mp3@CBR320kbps
*Size: 97MB

Tracklist:
01. Beyond the Pestilence
02. The Incestuous Beast
03. Morbid Murderer
04. Tombs Under the Hecatomb (feat. Alex Okendo)
05. Funeral Ceremony of Devourment
06. Evil Powder of Revival
07. Malignant Dust of Cemetery (feat. Sergio Ferreyra)
08. Unholy Night to Desecrate Graves
09. Ancient Trees of Sacrifices
******************************
Total playing time: 46:12



Extended info
AnHelles Drums
See also: Demoniac Slaughter, Narkan, Signs of the Evil, ex-Putrid, ex-Two Face Sinner, ex-Gore (live)
Nun'sfucker Vocals, Guitars
See also: Demoniac Slaughter, Eternal Exhumation, Impalement, ex-Gore (live)
Ripping Soul Collector Bass (2019-present)
See also: Nekromantik, Tormented, ex-Morbid Slaughter, Agresor, ex-Sexorcist, ex-Signs of the Evil
Sadistik Kali Guitars (2019-present)
See also: ex-Lament Christ, ex-Tunjum


Technical info
(IMG:https://metalarea.org/images/spectrogram/2020_Feb/857c113caaf757dd14b16cce59810d75.png)
Input File: 03. Morbid Murderer.mp3
Channels : 2
Sample Rate : 44100
Precision : 16-bit
Duration : 00:07:10.19 = 18971159 samples = 32263.9 CDDA sectors
File Size : 17.3M
Bit Rate : 322k
Sample Encoding: MPEG audio (layer I, II or III)
Comments :
Title=Morbid Murderer
Artist=Necrofagore
Album=Into the Gloom of the Buried Valley
Tracknumber=3
Year=2020



Register


Go to the top of the page
  Insert nick Quick quote
+Quote Post
 
Start new topic
Replies (1 - 2)
post Feb 29 2020, 23:39:55
Post #2

Правь статус, ####!111
**************
Group: Металариец
Posts: 21,167
Releases: 14450
From: Г.Харьков
On Forums: 7 years 10 months
Thanks: 257540 time(s)
Unknown


Cloud Mail 320
Register

FLAC (Tracks) 337 mb
Register


Go to the top of the page
  Insert nick Quick quote
+Quote Post
post Mar 2 2020, 00:43:00
Post #3

кручу наждак
**************
Group: Металариец
Posts: 4,301
Releases: 102
From: Самара
On Forums: 9 years 10 months
Thanks: 3408 time(s)
Russian Federation


Неплохо в целом.
Уважение к наследию классиков, прежде всего, как я понимаю, Bolt Thrower, заслуживает только похвалы.


Thanks:
Go to the top of the page
  Insert nick Quick quote
+Quote Post

Reply to this topicStart new topic
1 User(s) are reading this topic (1 Guests and 0 Anonymous Users)
0 Members:

 



- Lo-Fi Version Support form
Copyrights and abuse reports form
Time is now: 29th March 2020 - 04:43:33