Welcome Guest ( Log In | Register )

> И неформату есть предел.

Рэп/хип-хоп/шансон/поп удаляются. Для них есть свои порталы.

> The Night Flight Orchestra - Aeromantic (2020), Hard Rock/AOR
post Feb 29 2020, 21:06:40
Post #1

Правь статус, ####!111
**************
Group: Металариец
Posts: 2,921
Releases: 2616
From: Одесса
On Forums: 12 years 1 month
Thanks: 25152 time(s)
Ukraine


(IMG:http://metalarea.org/images/audiocovers/2020_Feb/acov_tid334474_thumb.jpg)

*Artist: The Night Flight Orchestra
*Album: Aeromantic
*Year: 2020
*Genre: Hard Rock/AOR
*Country: Sweden (IMG:http://metalarea.org/forum/style_images/flags/Sweden.png)
*Format: mp3@CBR320kbps
*Size: 129MB

Tracklist:
1.Servants of the Air 06:28
2.Divinyls 03:45
3.If Tonight Is Our Only Chance 03:13
4.This Boy's Last Summer 04:00
5.Curves 04:05
6.Transmissions 05:44
7.Aeromantic 04:13
8.Golden Swansdown 04:16
9.Taurus 02:54
10.Carmencita Seven 06:13
11.Sister Mercurial 03:45
12.Dead of Winter 06:07
******************************
Total playing time: 54:43

Extended info


Line - up:

Sharlee D'Angelo - Bass (Arch Enemy, Spiritual Beggars, Witchery, ex-Illwill, Black Earth, ex-King Diamond, ex-Mercyful Fate, ex-Dismember (live), ex-Facelift, ex-Sinergy, ex-Firegod)
Jonas Källsbäck - Drums (Mean Streak, ex-Axia, Gathering of Kings)
Richard Larsson - Keyboards (Gathering of Kings, Von Benzo)
David Andersson - Guitars (Soilwork, ex-Mean Streak)
Björn Strid - Vocals (Blinded in Bliss, Disarmonia Mundi, Forces United, Hespera, I Legion, Omethi, Soilwork, Terror 2000, Gathering of Kings, ex-Coldseed, ex-Darkane, ex-Dog Faced Gods, ex-Highball Shooters)
Sebastian Forslund - Guitars, Percussion
Anna-Mia Bonde - Vocals (backing) (ex-Amaranthe (live))
Anna Brygård - Vocals (backing)


Technical info
(IMG:http://metalarea.org/images/spectrogram/2020_Feb/ab0c2397ebf822f05faeb4556e45df87.png)
Input File: 05. Curves.mp3
Channels : 2
Sample Rate : 44100
Precision : 16-bit
Duration : 00:04:05.62 = 10831842 samples = 18421.5 CDDA sectors
File Size : 9.83M
Bit Rate : 320k
Sample Encoding: MPEG audio (layer I, II or III)
Comments :
Title=Curves
Artist=The Night Flight Orchestra
Album=Aeromantic
Tracknumber=5
Year=2020
Genre=Hard Rock/AOR



Register


Go to the top of the page
  Insert nick Quick quote
+Quote Post
 
Start new topic
Replies (1 - 8)
post Mar 1 2020, 09:03:39
Post #2

Правь статус, ####!111
**************
Group: Металариец
Posts: 3,387
Releases: 1
From: Рейх
On Forums: 13 years 10 months
Thanks: 908 time(s)
Ukraine


это круто
Go to the top of the page
  Insert nick Quick quote
+Quote Post
post Mar 3 2020, 22:09:54
Post #3

http://rateyourmusic.com/~Ghostb
**************
Group: Металариец
Posts: 2,170
Releases: 0
From: Харьков
On Forums: 10 years 9 months
Thanks: 1008 time(s)
Ukraine


Стрид, конечно, молодец, но все лучшие идеи все равно уходят в Soilwork (хотя, некоторые влияния на последних работах похоже прямиком из этого проекта). А так скучновато альбомами слушать, да и попсовенько (но понятно, что все это не всерьез). Саунд приятный.
Go to the top of the page
  Insert nick Quick quote
+Quote Post
post Mar 8 2020, 12:39:54
Post #4

Dark Ambient Shoujo
**********
Group: Металариец
Posts: 1,282
Releases: 2
On Forums: 11 years 6 months
Thanks: 733 time(s)
Russian Federation


Отличный альбом!


Thanks:
Go to the top of the page
  Insert nick Quick quote
+Quote Post
post Mar 15 2020, 16:43:20
Post #5

Восемь Литров
********
Group: Металариец
Posts: 811
Releases: 2
On Forums: 9 years 9 months
Thanks: 349 time(s)
Belarus


о е))дэнс дэнс.крутота.пойду закину в топ 2020


Thanks:
Go to the top of the page
  Insert nick Quick quote
+Quote Post
post May 5 2020, 17:03:28
Post #6

Правдоруб)
**************
Group: Металариец
Posts: 2,193
Releases: 1
From: Украина, Днепр
On Forums: 7 years 1 month
Thanks: 1770 time(s)
Ukraine


Как это я пропустил? Стрид - прекрасен (IMG:style_emoticons/default/20.gif)
Срочно в плеер! Благодарю (IMG:style_emoticons/default/9.gif)
Go to the top of the page
  Insert nick Quick quote
+Quote Post
post May 17 2020, 17:21:17
Post #7

Восемь Литров
********
Group: Металариец
Posts: 849
Releases: 0
From: Somewhere along nowhere
On Forums: 1 year 10 months
Thanks: 711 time(s)
United States Minor Outlying Islands


Это просто сказка, чудесный альбом!
Иногда хочется сказать, какая то облегченная форма Соилвёрка.
Но с другой стороны на альбоме явственно слышится обыгрывание поп и диско восьмидесятых.
Заходя с другой стороны, скажу, что все это очень сильно напоминает сольник Д.Свано 2010 c проекта Odyssey - Reinventing the Past
Короче, мне очень понравился альбом. сильно, красиво и глубоко запоминаемо!


Thanks:
(1) Battaleon,
Go to the top of the page
  Insert nick Quick quote
+Quote Post
post May 17 2020, 17:24:15
Post #8

Восемь Литров
********
Group: Металариец
Posts: 811
Releases: 2
On Forums: 9 years 9 months
Thanks: 349 time(s)
Belarus


альбом мегакрутейший.да


Thanks:
(1) quicksand,
Go to the top of the page
  Insert nick Quick quote
+Quote Post
post Jun 26 2020, 11:29:57
Post #9

Добрый
**************
Group: Металариец
Posts: 3,995
Releases: 0
On Forums: 2 years 1 week
Thanks: 6781 time(s)
Russian Federation


127 mb/320 kbps
Register


Thanks:
(1) Lukittaz,
Go to the top of the page
  Insert nick Quick quote
+Quote Post

Reply to this topicStart new topic
2 User(s) are reading this topic (2 Guests and 0 Anonymous Users)
0 Members:

 



- Lo-Fi Version Support form
Copyrights and abuse reports form
Time is now: 8th July 2020 - 06:29:29