Welcome Guest ( Log In | Register )

> 

Здесь релизы с живыми прямыми ссылками на lossless

> Absentation - Antimatter Rites (2020), Death Metal (D4)
post Feb 29 2020, 22:01:17
Post #1

Маньяк
**********
Group: Металариец
Posts: 1,009
Releases: 182
On Forums: 11 years 4 months
Thanks: 3593 time(s)
Russian Federation


(IMG:http://metalarea.org/images/audiocovers/2020_Feb/acov_tid334479_thumb.jpg)

*Artist: Absentation
*Album: Antimatter Rites
*Year: 2020
*Genre: Death Metal
*Country: Syria (IMG:http://metalarea.org/forum/style_images/flags/Syria.png)
*Format: mp3@CBR320kbps
*Size: 83MB

Tracklist:
01. Quantum Nothingness
02. Echoes of Distant Astronomical Giants
03. Cosmological Self Initiation
04. Dark Matter Requiem
05. The Velocity of Relativity Talisman
06. Antimatter Rites
07. A Cosmological Curse of a Dying Verse (Instrumental)
08. Gravitational Singularity
******************************
Total playing time: 36:18



Extended info
Salah Alghalayeeni: All instruments and vocals


Technical info
(IMG:http://metalarea.org/images/spectrogram/2020_Feb/51e906c169f22758255b7b821bcf61df.png)
Input File: 01-Quantum Nothingness.mp3
Channels : 2
Sample Rate : 44100
Precision : 16-bit
Duration : 00:05:05.16 = 13457380 samples = 22886.7 CDDA sectors
File Size : 12.2M
Bit Rate : 320k
Sample Encoding: MPEG audio (layer I, II or III)
Comments :
Title=Quantum Nothingness
Artist=Absentation
Album=Antimatter Rites
Tracknumber=1
Year=2020
Genre=Death Metal



Register


Go to the top of the page
  Insert nick Quick quote
+Quote Post
 
Start new topic
Replies (1 - 2)
post Feb 29 2020, 23:34:10
Post #2

Правь статус, ####!111
**************
Group: Металариец
Posts: 21,167
Releases: 14450
From: Г.Харьков
On Forums: 7 years 10 months
Thanks: 257533 time(s)
Unknown


FLAC (Tracks) 267mb
Register


Go to the top of the page
  Insert nick Quick quote
+Quote Post
post Mar 5 2020, 08:27:21
Post #3

Правь статус, ####!111
**************
Group: Металариец
Posts: 2,469
Releases: 0
From: MoscoW
On Forums: 13 years 3 months
Thanks: 2064 time(s)
Russian Federation


Go to the top of the page
  Insert nick Quick quote
+Quote Post

Reply to this topicStart new topic
1 User(s) are reading this topic (1 Guests and 0 Anonymous Users)
0 Members:

 



- Lo-Fi Version Support form
Copyrights and abuse reports form
Time is now: 29th March 2020 - 02:58:15