Welcome Guest ( Log In | Register )

> 

Здесь релизы с живыми прямыми ссылками на lossless

> Necrofagore - Macabre Finding (2013), Old School Death Metal
post Mar 1 2020, 08:33:16
Post #1

hearer & reader
**************
Group: Металариец
Posts: 8,503
Releases: 130
From: Moscow
On Forums: 12 years 6 months
Thanks: 8337 time(s)
Russian Federation


(IMG:http://metalarea.org/images/audiocovers/2020_Mar/acov_tid334493_thumb.jpg)

*Artist: Necrofagore
*Album: Macabre Finding
*Year: 2013
*Genre: Old School Death Metal
*Country: Peru (IMG:http://metalarea.org/forum/style_images/flags/Peru.png)
*Format: mp3@CBR320kbps
*Size: 99MB

Tracklist:
1 Death Battle (Time to Die) 2:20
2 Cannibalistic Necrophilia 3:16
3 Are You Afraid To Die? 4:51
4 Macabre Finding 4:19
5 Raped In The Church 5:05
6 Acts Without A Name (J. Mengele) 6:49
7 Abyss Of Mutations 3:33
8 Morbid Night To Fuck Corpses 6:18
9 Hadez Attack (Hadez Cover) 5:14
******************************
Total playing time: 41:45




Extended info
Переиздание 2016 с тремя бонусами.
Pathologically Explicit Recordings ‎– PER1005, The Horror Dimension ‎– THD005 <br /https://www.discogs.com/ru/Necrofagore-Maca...release/8614199
Последний трек как-то резко обрывается, потом - цифровая тишина (отрезал).


Technical info
(IMG:http://metalarea.org/images/spectrogram/2020_Mar/9c388dc30eef3bd0787d1346bd48c1d6.png)
Input File: 01 - Death Rattle (Time to Die).mp3
Channels : 2
Sample Rate : 44100
Precision : 16-bit
Duration : 00:02:20.60 = 6200372 samples = 10544.9 CDDA sectors
File Size : 5.63M
Bit Rate : 320k
Sample Encoding: MPEG audio (layer I, II or III)
Comments :
Title=Death Rattle (Time to Die)
Artist=Necrofagore [Peru]
Album=Macabre Finding (2016)
Tracknumber=01
Year=2013
Genre=Death Metal



Register


Go to the top of the page
  Insert nick Quick quote
+Quote Post
 
Start new topic
Replies (1 - 2)
post Mar 2 2020, 11:10:33
Post #2

Пять Литров
*****
Group: Металариец
Posts: 488
Releases: 0
From: APATIN, SERBIA, АПАТИН, СЕРБИЯ
On Forums: 12 years 5 months
Thanks: 701 time(s)



Flac

Register


Go to the top of the page
  Insert nick Quick quote
+Quote Post
post Mar 2 2020, 19:32:47
Post #3

hearer & reader
**************
Group: Металариец
Posts: 8,503
Releases: 130
From: Moscow
On Forums: 12 years 6 months
Thanks: 8337 time(s)
Russian Federation


ЦИТАТА(oathzine @ Mar 2 2020, 13:10:33) *
Flac

Hey, chamo. Your link follows to the Necrofagore - Into The Gloom Of The Buried Valley (2020)
Go to the top of the page
  Insert nick Quick quote
+Quote Post

Reply to this topicStart new topic
1 User(s) are reading this topic (1 Guests and 0 Anonymous Users)
0 Members:

 



- Lo-Fi Version Support form
Copyrights and abuse reports form
Time is now: 29th March 2020 - 03:07:44