Welcome Guest ( Log In | Register )

> 

Здесь релизы с живыми прямыми ссылками на lossless

> Darkside Ritual - Relics Of Tyranny (2020), Technical Death Metal
post Mar 3 2020, 14:04:16
Post #1

Правь статус, ####!111
**************
Group: Металариец
Posts: 21,167
Releases: 14450
From: Г.Харьков
On Forums: 7 years 10 months
Thanks: 257540 time(s)
Unknown


(IMG:https://metalarea.org/images/audiocovers/2020_Mar/acov_tid334565_thumb.jpg)

*Artist: Darkside Ritual
*Album: Relics Of Tyranny
*Year: 2020
*Genre: Technical Death Metal
*Country: Mexico (IMG:https://metalarea.org/forum/style_images/flags/Mexico.png)
*Format: mp3@CBR320kbps
*Size: 62MB

Tracklist:
1. Subspace Ghoul 01:10
2. Dreaded Nightfall 04:52
3. Reside Amongst Flesh 03:58
4. Monolith of The Macroverse 04:13
5. Solemn Gathering 03:55
6. Spires of Anamnesis 03:58
7. The Nucleic Premise 04:48
******************************
Total playing time: 26:54




Extended info
Martin Torres Bass
Fidexx Drums
Adrián Ríos Guitars
Juan Mondra Vocals, Guitars
See also: Muerto, Vulture


Technical info
(IMG:https://metalarea.org/images/spectrogram/2020_Mar/d5ac10e2fc1d6935209cd57d7bbbd7e8.png)
Input File: 04 - Monolith of the Macroverse.mp3
Channels : 2
Sample Rate : 44100
Precision : 16-bit
Duration : 00:04:13.85 = 11194741 samples = 19038.7 CDDA sectors
File Size : 10.2M
Bit Rate : 323k
Sample Encoding: MPEG audio (layer I, II or III)
Comments :
Title=Monolith of the Macroverse
Artist=Darkside Ritual
Album=Relics of Tyranny
Tracknumber=4
Year=2020



Register


Go to the top of the page
  Insert nick Quick quote
+Quote Post
 
Start new topic
Replies (1 - 2)
post Mar 4 2020, 02:02:21
Post #2

Правь статус, ####!111
**************
Group: Металариец
Posts: 21,167
Releases: 14450
From: Г.Харьков
On Forums: 7 years 10 months
Thanks: 257540 time(s)
Unknown


Cloud Mail 320
Register
Go to the top of the page
  Insert nick Quick quote
+Quote Post
post Mar 4 2020, 08:48:32
Post #3

Пять Литров
*****
Group: Металариец
Posts: 488
Releases: 0
From: APATIN, SERBIA, АПАТИН, СЕРБИЯ
On Forums: 12 years 5 months
Thanks: 701 time(s)



Flac

Register


Go to the top of the page
  Insert nick Quick quote
+Quote Post

Reply to this topicStart new topic
1 User(s) are reading this topic (1 Guests and 0 Anonymous Users)
0 Members:

 



- Lo-Fi Version Support form
Copyrights and abuse reports form
Time is now: 29th March 2020 - 04:50:53