Welcome Guest ( Log In | Register )

> 

Здесь релизы с живыми прямыми ссылками на lossless

> Forever Dead - Tales From Beyond (2020), Old School Death Metal
post Mar 4 2020, 02:27:12
Post #1

Правь статус, ####!111
**************
Group: Металариец
Posts: 21,258
Releases: 14534
From: Г.Харьков
On Forums: 7 years 10 months
Thanks: 259278 time(s)
Unknown


(IMG:https://metalarea.org/images/audiocovers/2020_Mar/acov_tid334587_thumb.jpg)

*Artist: Forever Dead
*Album: Tales From Beyond
*Year: 2020
*Genre: Old School Death Metal
*Country: France (IMG:https://metalarea.org/forum/style_images/flags/France.png)
*Format: mp3@CBR320kbps
*Size: 98MB

Tracklist:
1. The Horror in the Burial Ground P1 02:51
2. The Horror in the Burial Ground P2 02:39
3. Haunted Remains 04:23
4. Four o'Clock 03:20
5. Back from the Crypt 04:21
6. Dark Soul 03:31
7. Lex mortis 01:28
8. The Curse from R'hyleb 02:56
9. Prophetic Possession 03:12
10. Gorghar by the Greats Old Ones 03:13
11. Beast of War 03:17
12. Till All the Seas 03:35
13. Ya isa ya ri ega bi esha xi yilqa 02:13
******************************
Total playing time: 40:59




Extended info
Xyrnh All instruments
Razarth Vocals


Technical info
(IMG:https://metalarea.org/images/spectrogram/2020_Mar/4ee0f52474ba1fdb83ed70172d88cf7c.png)
Input File: 05. Back from the Crypt.mp3
Channels : 2
Sample Rate : 44100
Precision : 16-bit
Duration : 00:04:21.00 = 11510100 samples = 19575 CDDA sectors
File Size : 10.8M
Bit Rate : 331k
Sample Encoding: MPEG audio (layer I, II or III)
Comments :
Title=Back from the Crypt
Artist=Forever Dead
Album=Tales From Beyond (320)
Tracknumber=05
Year=2020
Genre=Metal



Register


Go to the top of the page
  Insert nick Quick quote
+Quote Post
 
Start new topic
Replies (1 - 1)
post Mar 4 2020, 08:38:43
Post #2

Шесть Литров
******
Group: Металариец
Posts: 512
Releases: 0
From: APATIN, SERBIA, АПАТИН, СЕРБИЯ
On Forums: 12 years 5 months
Thanks: 720 time(s)



Flac

Register


Go to the top of the page
  Insert nick Quick quote
+Quote Post

Reply to this topicStart new topic
1 User(s) are reading this topic (1 Guests and 0 Anonymous Users)
0 Members:

 



- Lo-Fi Version Support form
Copyrights and abuse reports form
Time is now: 3rd April 2020 - 18:17:57