Welcome Guest ( Log In | Register )

> 

Здесь релизы с живыми прямыми ссылками на lossless

> Varulv - Kerker, Todt Und Teyfl (2020), Black Metal (D7)
post Mar 9 2020, 21:07:27
Post #1

Правь статус, ####!111
**************
Group: Металариец
Posts: 21,167
Releases: 14450
From: Г.Харьков
On Forums: 7 years 10 months
Thanks: 257540 time(s)
Unknown


(IMG:http://metalarea.org/images/audiocovers/2020_Mar/acov_tid334770_thumb.jpg)

*Artist: Varulv
*Album: Kerker, Todt Und Teyfl
*Year: 2020
*Genre: Black Metal
*Country: Austria (IMG:http://metalarea.org/forum/style_images/flags/Austria.png)
*Format: mp3@CBR320kbps
*Size: 96MB

Tracklist:
1. Kerker 01:52
2. Der Rattenpakt 04:43
3. Erwachen 04:51
4. Todt 01:25
5. Des Scharfrichters Pflicht 04:54
6. Am Totentisch 06:21
7. Alter Pfad 04:25
8. Teyfl 01:24
9. Der Leichenfresser 04:58
10. Münzen aus Gold 04:42
11. In Schwarz gehüllt 05:28
******************************
Total playing time: 45:03



Extended info
Irrah Den Fryktelige Guitars (2012-present), Vocals (2013-present)
See also: Ketelens' Brukke, Rigor Mortis
Heimdall's Auge Drums (2013-present)
See also: ex-Blessmon, ex-Interregnum
Woltan Guitars (rhythm) (2018-present)
Malthus Bass (2020-present)
See also: Groteskh, Obsidian Chamber, Sakrileg, Shadows' Grey, Voidstalker, Azahel's Fortress (live), Gabriel's Cry, ex-Hellsaw, ex-Desperate Remember (live), ex-Asmodeus, ex-Candles and Wraiths, ex-Irdorath, ex-Scargod, ex-Stormrage (live), ex-Sanguis, ex-Valfeanor



Technical info
(IMG:http://metalarea.org/images/spectrogram/2020_Mar/ced0e4dcf312d0a4e14386051e803768.png)
Input File: 05. Des Scharfrichters Pflicht.mp3
Channels : 2
Sample Rate : 44100
Precision : 16-bit
Duration : 00:04:54.52 = 12988464 samples = 22089.2 CDDA sectors
File Size : 11.9M
Bit Rate : 323k
Sample Encoding: MPEG audio (layer I, II or III)
Comments :
Title=Des Scharfrichters Pflicht
Artist=VarulV
Album=Kerker, Todt und Teyfl
Tracknumber=5/11
Year=2020
Genre=9
Discnumber=1/1



Register


Go to the top of the page
  Insert nick Quick quote
+Quote Post
 
Start new topic
Replies (1 - 1)
post Mar 10 2020, 13:31:55
Post #2

Два Литра
**
Group: Завсегдатай
Posts: 112
Releases: 2
From: г. Нальчик
On Forums: 7 years 3 months
Thanks: 293 time(s)
Russian Federation


Varulv - Kerker, Todt Und Teyfl (2020), FLAC (tracks), Lossless 339 MB
Register


Thanks:
Go to the top of the page
  Insert nick Quick quote
+Quote Post

Reply to this topicStart new topic
1 User(s) are reading this topic (1 Guests and 0 Anonymous Users)
0 Members:

 



- Lo-Fi Version Support form
Copyrights and abuse reports form
Time is now: 29th March 2020 - 04:44:01