Welcome Guest ( Log In | Register )

> Necrophiliac - No Living Man Is Innocent (2020), Old School Death Metal
post Mar 11 2020, 14:34:23
Post #1

Мегаманьяк
***********
Group: Металариец
Posts: 1,585
Releases: 271
On Forums: 12 years 2 months
Thanks: 5797 time(s)
Russian Federation


(IMG:http://metalarea.org/images/audiocovers/2020_Mar/acov_tid334810_thumb.jpg)

*Artist: Necrophiliac
*Album: No Living Man Is Innocent
*Year: 2020
*Genre: Old School Death Metal
*Country: Spain (IMG:http://metalarea.org/forum/style_images/flags/Spain.png)
*Format: mp3@CBR320kbps
*Size: 125MB

Tracklist:
01. Piper Leading Innocents
02. Hunting Humans
03. Magma of Flesh (Beasts of the Earth)
04. When Mother Ate Son
05. Horseaters
06. Inhabitants of the Red Forest
07. Kill All, Burn All, Loot All
08. GodBundy
09. No Living Man is Innocent
******************************
Total playing time: 54:30



Extended info


2nd album, 28 years after their debut :crazy: , by the most legendary Spanish Death Metal band. Only for lovers of old school sounding Death Metal!!

releases March 12, 2020

Lineup:
Sweick Drums
Ery Guitars
Miguel Guitars
Bongo Vocals
Ramón Bass (2018-present)

(IMG:https://www.metal-archives.com/images/1/3/0/9/13099_photo.jpg)


Technical info
(IMG:http://metalarea.org/images/spectrogram/2020_Mar/872abbcd20b5600033871ed14c17a970.png)
Input File: 01-Piper Leading Innocents.mp3
Channels : 2
Sample Rate : 44100
Precision : 16-bit
Duration : 00:04:51.10 = 12837554 samples = 21832.6 CDDA sectors
File Size : 11.6M
Bit Rate : 320k
Sample Encoding: MPEG audio (layer I, II or III)
Comments :
Title=Piper Leading Innocents
Artist=Necrophiliac
Album=No Living Man is Innocent
Tracknumber=1
Year=2020
Genre=Old School Death Metal



Register


Go to the top of the page
  Insert nick Quick quote
+Quote Post
 
Start new topic
Replies (1 - 4)
post Mar 14 2020, 00:27:33
Post #2

Group: Подсевший
Posts: 13
Releases: 0
From: Near by Uranus (sometimes to Pluton)
On Forums: 1 year 5 days
Thanks: 1 time(s)
Unknown


Thanks! (IMG:style_emoticons/default/9.gif)
Go to the top of the page
  Insert nick Quick quote
+Quote Post
post Mar 24 2020, 05:33:46
Post #3

Grind the Human Scum
**********
Group: Металариец
Posts: 1,055
Releases: 18
On Forums: 14 years 3 weeks
Thanks: 1045 time(s)
Russian Federation


Хороший альбом, олдовый мелодичный, злой. абсоллютный неждан, думал сплитапнулись давно, аннет) совпадения ради, буквально пару дней назад выкручивал их ломовейший Хаопулу (IMG:style_emoticons/default/dwarf-1.gif) .


Thanks:
(1) Samogon,
Go to the top of the page
  Insert nick Quick quote
+Quote Post
post Sep 24 2020, 21:50:47
Post #4

Empty Words
**************
Group: Металариец
Posts: 2,089
Releases: 13
From: Москва
On Forums: 11 years 5 months
Thanks: 2706 time(s)
Russian Federation


На этом альбоме испанцы сделали ставку на атмосферу, оставаясь при этом в рамках старой школы. Сыграли преимущественно тягуче, но со сменами темпа и интенсивности, с немалым количеством мелодичных пронзительных соло. Примерные ориентиры — Bolt Trower, Asphyx, Hail Of Bullets. Присутствует трек на тему Чернобыля — 'Inhabitants of the Red Forest' c диалогами на русском.
Крепкий, симпатичный альбом, не штамповка. Более яростный вокал либо мощный гроул сделали бы его еще краше.

Go to the top of the page
  Insert nick Quick quote
+Quote Post
post Nov 22 2020, 14:44:51
Post #5

Два Литра
**
Group: Завсегдатай
Posts: 101
Releases: 0
On Forums: 2 months 2 weeks
Thanks: 58 time(s)
Somalia


Альбом таки заслуживает большего внимания. Дядьки сочинять умеют.

В начале второго трека чьи-то вопли - на ютубе натыкался уже на них. Одна американская бабулька позвонила в 911 и сказала, что рядом с домом кто-то шарится. Но пока она звонила, этот кто-то уже влез внутрь и бабульку прямо во время звонка предположительно забили до смерти.

Go to the top of the page
  Insert nick Quick quote
+Quote Post

Reply to this topicStart new topic
1 User(s) are reading this topic (1 Guests and 0 Anonymous Users)
0 Members:

 



- Lo-Fi Version Support form
Copyrights and abuse reports form
Time is now: 26th January 2021 - 16:33:40