Welcome Guest ( Log In | Register )

> 

Здесь релизы с живыми прямыми ссылками на lossless

> Burden Of Life - The Makeshift Conqueror (2020), Melodic Death Metal (D5)
post Mar 12 2020, 14:54:31
Post #1

Правь статус, ####!111
**************
Group: Металариец
Posts: 23,570
Releases: 16504
From: Г.Харьков
On Forums: 8 years 5 months
Thanks: 311396 time(s)
Unknown


(IMG:http://metalarea.org/images/audiocovers/2020_Mar/acov_tid334868_thumb.jpg)

*Artist: Burden Of Life
*Album: The Makeshift Conqueror
*Year: 2020
*Genre: Melodic Death Metal
*Country: Germany (IMG:http://metalarea.org/forum/style_images/flags/Germany.png)
*Format: mp3@CBR320kbps
*Size: 126MB

Tracklist:
1. The Makeshift Conqueror Pt. 1
2. Geisteblitz
3. Goddess Of The River
4. Anthem Of The Unbeloved
5. Sealing Our Fate
6. Pisces
7. Regression (Goddess Return)
8. Trust My Own Heart
9. The Makeshift Conqueror Pt. 2
******************************
Total playing time: 59:12




Extended info
Mathias Babl Drums
Christian "Kötti" Kötterl Guitars, Vocals
See also: ex-Surge
Michael "Schafi" Schafberger Guitars
Karl Arnold Bodarwé Bass (2009-present)
See also: ex-Unsharpen Dawn


Technical info
(IMG:http://metalarea.org/images/spectrogram/2020_Mar/233011ed1a9d4f988b0178624e40a5fc.png)
Input File: 04. Anthem of the Unbeloved.mp3
Channels : 2
Sample Rate : 44100
Precision : 16-bit
Duration : 00:06:48.29 = 18005721 samples = 30622 CDDA sectors
File Size : 16.5M
Bit Rate : 324k
Sample Encoding: MPEG audio (layer I, II or III)
Comments :
Title=Anthem of the Unbeloved
Artist=Burden Of Life
Album=The Makeshift Conquerer
Tracknumber=4/9
Year=2020
Genre=Metal
Discnumber=1/1



Register


Go to the top of the page
  Insert nick Quick quote
+Quote Post
 
Start new topic
Replies (1 - 6)
post Mar 15 2020, 09:55:52
Post #2

Правь статус, ####!111
**************
Group: Металариец
Posts: 23,570
Releases: 16504
From: Г.Харьков
On Forums: 8 years 5 months
Thanks: 311396 time(s)
Unknown


Cloud Mail 320
Register


Thanks:
Go to the top of the page
  Insert nick Quick quote
+Quote Post
post Mar 21 2020, 16:33:01
Post #3

Два Литра
**
Group: Завсегдатай
Posts: 119
Releases: 0
From: Moscow/Kiev
On Forums: 14 years 9 months
Thanks: 66 time(s)
Russian Federation


Очень интересное и разнообразное музыкальное полотно. Слушать - одно удовольствие.
Go to the top of the page
  Insert nick Quick quote
+Quote Post
post Mar 22 2020, 02:45:37
Post #4

Пять Литров
*****
Group: Металариец
Posts: 402
Releases: 0
From: Лыткарино
On Forums: 1 year 5 months
Thanks: 96 time(s)
Russian Federation


По настроению настолько всё понамешено, что становится не интересно, а неприятно из-за взаимоисключающих ходов и влияний. Т.е. это не Диаболикал маскарад и не Дэн Свано, где разнообразия хватает, но всё гармонично и приятно слушается, тут резкие перекидки (по-иному не скажешь) из школьного радужного творчества в относительно действительно неплохой мелодэт. Короче, на любителя сильно. Это как здоровый викинг, который сегодня рубает всех топором, вытирая окровавленной бородой сумасшедшие глаза, а завтра изображает школьницу, которая чпокается с симпатичным одноклассником - ну никак эти вещи не сочетаются. Также и здесь)
Go to the top of the page
  Insert nick Quick quote
+Quote Post
post Oct 17 2020, 16:42:05
Post #5

FOLK METAL FEVER
**************
Group: Металариец
Posts: 2,122
Releases: 6
From: Kyiv
On Forums: 12 years 11 months
Thanks: 279 time(s)
Ukraine


Мдаа, гремучий замес. Не ожидал.
Go to the top of the page
  Insert nick Quick quote
+Quote Post
post Oct 17 2020, 18:52:25
Post #6

Old School Metal
**************
Group: Металариец
Posts: 3,081
Releases: 0
From: г. Минск
On Forums: 11 years 7 months
Thanks: 7143 time(s)
Belarus



Lossless: FLAC (tracks)
Register


Thanks:
Go to the top of the page
  Insert nick Quick quote
+Quote Post
post Oct 20 2020, 10:26:57
Post #7

Два Литра
**
Group: Завсегдатай
Posts: 140
Releases: 0
On Forums: 11 years 4 months
Thanks: 118 time(s)
Russian Federation


Одно из открытий сезона (предыдущие пластинки как-то не запомнились). Понамешали порядочно, но парни и в мелодии умеют, и в аранжировки, и соляги атмосферные. Нафаршировано всё плотно, префикс "прогрессив" так и напрашивается. Всё ждёшь, когда начнут повторяться, но почти до конца как по немецкому автобану, с ветерком. Здорово!
Go to the top of the page
  Insert nick Quick quote
+Quote Post

Reply to this topicStart new topic
2 User(s) are reading this topic (2 Guests and 0 Anonymous Users)
0 Members:

 



- Lo-Fi Version Support form
Copyrights and abuse reports form
Time is now: 30th October 2020 - 08:15:05