Welcome Guest ( Log In | Register )

> И неформату есть предел.

Рэп/хип-хоп/шансон/поп удаляются. Для них есть свои порталы.

 
Reply to this topicStart new topic
> Minóy - In Search Of Tarkovsky (1986), Ambient/Drone
post Mar 14 2020, 08:43:38
Post #1

####!111
**************
Group: Металариец
Posts: 3,929
Releases: 127
From: The Mountain Of DOOM
On Forums: 12 years 5 months
Thanks: 5490 time(s)
Russian Federation


(IMG:http://metalarea.org/images/audiocovers/2020_Mar/acov_tid334941_thumb.jpg)

*Artist: Minóy
*Album: In Search Of Tarkovsky
*Year: 1986
*Genre: Ambient/Drone
*Country: United States (IMG:http://metalarea.org/forum/style_images/flags/United%20States.png)
*Format: mp3@CBR320kbps
*Size: 165MB

Tracklist:
1. In Search Of Tarkovsky 29:47
2. Memory Undefined (Dream As Truth) 28:36
******************************
Total playing time: 58:23


(IMG:http://metalarea.org/images/youtube.png)

Extended info
Cold Spring CSR273CD
В архиве содержатся также 3 сэмпла для компиляциии лейбла
Remastered for CD in 2020. Originally released in 1986 on Minóy Cassetteworks
-------
Minóy (1951-2010), a major figure in DIY noise music, produced some of the most remarkably engrossing, beautiful and imaginative work-of-art albums released on cassette in the 1980's.

Created in 1986, "In Search Of Tarkovsky" is dedicated to the late Russian Director Andrei Tarkovsky ("Solaris", "Stalker", "Andrei Rublev" etc). A unique world of musical expression, with dense audio abstractions where the origin of any particular sound isn't quite discernible. A form of labyrinthian, droning collage electronics, otherworldly and dreamlike, at times nightmarish, at times sad, but always bold and deeply affecting.

Composed after the director's death, it contains many trademarks of Minóy's style: manipulation of shortwave radio, use of spring reverb to get those strangely echoing, claustrophobic environments, and then the howling vocals, piling-up and distorting. Minóy plainly mourns the director's death but in such a unique way there is nothing to compare it to. Two long-form, elaborate pieces (just under 1 hour), essential to Minóy's aesthetic of "cinema of the ear".

This is the first Minóy material ever to be reissued. Unavailable since the original cassette release, these tracks have been remastered from the original archive files and are presented for the first time on CD in a matt-laminate digipak.


Technical info
(IMG:http://metalarea.org/images/spectrogram/2020_Mar/74dde293c92077ba8861b2d32bb4b877.png)
Input File: 05 Memory Undefined (Dream As Truth) (Excerpt).mp3
Channels : 2
Sample Rate : 44100
Precision : 16-bit
Duration : 00:04:00.08 = 10587572 samples = 18006.1 CDDA sectors
File Size : 9.70M
Bit Rate : 323k
Sample Encoding: MPEG audio (layer I, II or III)
Comments :
Title=Memory Undefined (Dream As Truth) (Excerpt)
Artist=Minóy
Album=In Search Of Tarkovsky
Tracknumber=5
Year=2020
Genre=Ambient



Register


Go to the top of the page
  Insert nick Quick quote
+Quote Post

Reply to this topicStart new topic
1 User(s) are reading this topic (1 Guests and 0 Anonymous Users)
0 Members:

 



- Lo-Fi Version Support form
Copyrights and abuse reports form
Time is now: 29th March 2020 - 03:48:35