Welcome Guest ( Log In | Register )

> И неформату есть предел.

Рэп/хип-хоп/шансон/поп удаляются. Для них есть свои порталы.

 
Reply to this topicStart new topic
> King Automatic - I Walk My Murderous Intentions Home (2007), Garage Rock
post Mar 14 2020, 10:25:09
Post #1

:3
**************
Group: Металариец
Posts: 4,578
Releases: 103
From: Novosibirsk
On Forums: 12 years 6 months
Thanks: 3714 time(s)
Russian Federation


(IMG:http://metalarea.org/images/audiocovers/2020_Mar/acov_tid334943_thumb.jpg)

*Artist: King Automatic
*Album: I Walk My Murderous Intentions Home
*Year: 2007
*Genre: Garage Rock
*Country: France (IMG:http://metalarea.org/forum/style_images/flags/France.png)
*Format: mp3@VBR249kbps
*Size: 73MB

Tracklist:
1. Real King 3:11
2. Miss Phenomenal 3:13
3. I walk my murderous intentions home 3:15
4. Artschool girl 1:42
5. She's fine she's mine 2:14
6. Here comes the terror 2:45
7. Two grams 3:18
8. Coffee and speed 2:42
9. Rhapsody angel 1:03
10. The sinner 2:22
11. Stop workin 2:10
12. A few dollars less 2:26
13. It's a girl thing 2:18
14. Nothing works Part II 3:09
15. I'll give you space cake 4:09
******************************
Total playing time: 39:57

Extended info
Абсолютно оголтелый человек-оркестр.


Technical info
(IMG:http://metalarea.org/images/spectrogram/2020_Mar/de97b2ab6d06bb91f32cf101c5f0a82f.png)
Input File: 06 - Here Comes The Terror.mp3
Channels : 2
Sample Rate : 44100
Precision : 16-bit
Duration : 00:02:45.54 = 7300182 samples = 12415.3 CDDA sectors
File Size : 5.70M
Bit Rate : 276k
Sample Encoding: MPEG audio (layer I, II or III)
Comments :
Title=Here Comes The Terror
Artist=King Automatic
Album=I Walk My Murderous Intentions Home
Tracknumber=06
Year=2007
Genre=Garage Punk



Register


Thanks:
Go to the top of the page
  Insert nick Quick quote
+Quote Post

Reply to this topicStart new topic
1 User(s) are reading this topic (1 Guests and 0 Anonymous Users)
0 Members:

 



- Lo-Fi Version Support form
Copyrights and abuse reports form
Time is now: 3rd April 2020 - 18:24:17